【2473】梁汉文-贴身拉阔音乐会[华星香港版]WAV+CUE

回复 星标
更多
309569476<309569476> 2018-11-27 19:24 只看该作者

【2473】梁汉文-贴身拉阔音乐会[华星香港版]WAV+CUE

发行:华星唱片(香港)

时间:2000

编号:CD-24-1307

IFPI:9M05

第一眼看到专辑名字的时候,大家可能会有一个疑问,什么叫“903 Id Club 贴身拉阔音乐会”?“903”是商业电台叱吒903的播放频道,也就是FM 90.3了。“Id Club”是叱吒903中的一个节目名称,是由DJ森美与阮小仪共同主持,是一个音乐性节目。“贴身拉阔音乐会”呢?这个意义就重大了,平时听电台广播是隔着空气也看不到东西的听,演唱会就不一样,面对面直接的接触,而且在这一个《梁汉文903 Id Club 贴身拉阔音乐会》不单是梁汉文与观众近身接触,就连Id Club两位DJ森美与阮小仪也与观众打破隔阂,与观众贴身接触拉阔他们的视听频道。 这一个是梁汉文与叱吒903合办的演唱会,当然会与别人的演唱会不一样,在其中梁汉文所唱的歌曲,大部份都有经过特别处理,是现在的混合版,有‘好朋友+点够喉’、‘大摇大摆+随时行乐’、‘伤了三个心+缠绵游戏+衣柜里的男人’等,当然也有没有加工过的歌曲,有‘一夜之间’、‘太太!太太’……等等好歌。如果没办法到现场“拉阔”的您,绝对不用担心,现在有这么一个机会让您可以带回家“拉阔”,快把它带回家吧!

(以上介绍源自网络,感谢原作者)

专辑曲目:

01.好朋友+点够喉

02.大摇大摆+随时行乐

03.一夜之间

04.伤了三个心+缠绵游戏+衣柜里的男人

05.深蓝

06.黑夜不再来

07.发热发亮

08.我的命运

09.好朋友

10.太太太太

Exact Audio Copy V0.99 prebeta 5 from 4. May 2009

EAC 抓取日志文件从5. 十一月 2013, 17:34

梁汉文 / 拉阔音乐会

使用驱动器  :PIONEER DVD-RW  DVR-220L  Adapter: 2  ID: 1

读取模式 : 快速

读取偏移校正                   : 6

读取 Lead-In 和 Lead-Out       : 否

用静音填充抓取中丢失偏移的采样 : 是

去除首尾静音块                 : 否

在 CRC 计算中使用了空样本      : 否

已用接口                       : Win NT 及 2000 本地 Win32 接口

所用输出格式 : 内部 WAV 函数

样本格式     : 44.100 Hz;16 Bit;立体声

被抓轨 CD 的 TOC

音轨 |   开始   |   长度   | 起始扇区 | 结尾扇区

--------------------------------------------------

1  |  0:00.00 |  3:41.33 |       0  |  16607

2  |  3:41.33 |  4:16.03 |  16608  |  35810

3  |  7:57.36 |  3:36.64 |  35811  |  52074

4  | 11:34.25 |  4:29.53 |  52075  |  72302

5  | 16:04.03 |  4:40.07 |  72303  |  93309

6  | 20:44.10 |  3:38.58 |  93310  |  109717

7  | 24:22.68 |  3:08.32 |  109718  |  123849

8  | 27:31.25 |  4:45.22 |  123850  |  145246

9  | 32:16.47 |  1:43.46 |  145247  |  153017

10  | 34:00.18 |  4:54.41 |  153018  |  175108

11  | 38:54.59 |  3:54.46 |  175109  |  192704

12  | 42:49.30 |  4:05.03 |  192705  |  211082

13  | 46:54.33 |  3:31.38 |  211083  |  226945

14  | 50:25.71 |  3:50.22 |  226946  |  244217

15  | 54:16.18 |  2:33.72 |  244218  |  255764

16  | 56:50.15 |  4:01.69 |  255765  |  273908

17  | 60:52.09 |  5:04.06 |  273909  |  296714

18  | 68:28.15 |  7:20.68 |  308115  |  341182

范围状态及错误

已选择范围

文件名 F:\2013.10.25\梁汉文 拉阔音乐会\梁汉文 - 拉阔音乐会.wav

可疑位置 0:38:23

峰值电平 100.0 %

复制 CRC FDD71196

复制结束

出现错误

AccurateRip 概要

音轨  1  数据库中未见

音轨  2  数据库中未见

音轨  3  数据库中未见

音轨  4  数据库中未见

音轨  5  数据库中未见

音轨  6  数据库中未见

音轨  7  数据库中未见

音轨  8  数据库中未见

音轨  9  数据库中未见

音轨 10  数据库中未见

音轨 11  数据库中未见

音轨 12  数据库中未见

音轨 13  数据库中未见

音轨 14  数据库中未见

音轨 15  数据库中未见

音轨 16  数据库中未见

音轨 17  数据库中未见

没有任何音轨出现在 AccurateRip 数据库中

状态报告结尾

www.yinxiangtushu.com
回复可见
新窗口打开 关闭