【5579】使命召唤:黑色行动 游戏原声 Call Of Duty Black Ops Cold War (by Jack Wall) - 2020 FLAC

回复 已回复18 星标
更多

【5579】使命召唤:黑色行动 游戏原声 Call Of Duty Black Ops  Cold War (by Jack Wall) - 2020  FLAC 

又名: 使命召唤:黑色行动冷战 / 决胜时刻:黑色行动 冷战 

表演者: Jack Wall 
流派: 原声 

专辑类型: 专辑 

发行时间: 2020-11-13 

出版者: Activision 
唱片数: 2 

曲目:

01. Cold War
02. Bell's Theme
03. 1981
04. Rising Tide
05. New Beginnings
06. No Higher Duty
07. Amsterdam
08. Interrogation
09. Turkey
10. Trazbon Airfield
11. Give Us a Name
12. Fracture Jaw
13. Camp Haskins
14. Vietnamese Village
15. Move to Extract
16. Flying Assault
17. Stakeout
18. Tracking Volkov
19. The Informant-Find Briefcase
20. Escape
21. Cuban Crisis
22. Palace Intrigue
23. Searching for the Nuke Room
24. Room 27b
25. Rooftop Fray
26. Amerika Town
27. Main Street, U.S.S.R.
28. Hacking the Command Center
29. Exit Amerika
30. Confronting Hudson
31. Yamantau Ridge
32. Satcom
33. Through the Tunnels
34. Surveying
35. Seize the Server
36. Bell on the Inside
37. Searching
38. Undercover
39. Comrades in Arms
40. Lockdown
41. Intel Escape
42. Prisoner
43. Ruộng lúa
44. Jungle Haze
45. Ruộng lúa hai
46. Who Am I?
47. Ruộng lúa ba
48. This Ends Now
49. The Siege
50. Final Retribution
51. Comrade
foobar2000 1.6.2 / Замер динамического диапазона (DR) 1.1.1
Дата отчёта:  2020-11-17 21:55:16
--------------------------------------------------------------------------------
Анализ:  Jack Wall, Big Giant Circles / Call Of Duty Black Ops: Cold War (1)
Jack Wall, Jim Lordeman / Call Of Duty Black Ops: Cold War (2-4)
Jack Wall / Call Of Duty Black Ops: Cold War (5-51)
--------------------------------------------------------------------------------
DR         Пики        RMS           Продолжительность трека
--------------------------------------------------------------------------------
DR8       -0.07 дБ   -10.77 дБ      3:21 04-Rising Tide
DR8       -0.49 дБ   -11.18 дБ      1:06 15-Move to Extract
DR7       -0.48 дБ    -9.28 дБ      2:36 27-Main Street, U.S.S.R.
DR11      -0.50 дБ   -14.87 дБ      2:26 44-Jungle Haze
DR8       -0.47 дБ   -10.43 дБ      3:22 01-Cold War
DR8       -0.47 дБ   -12.29 дБ      4:40 02-Bell's Theme
DR9       -0.50 дБ   -12.63 дБ      3:23 03-1981
DR12      -0.49 дБ   -17.85 дБ      2:46 05-New Beginnings
DR11      -0.50 дБ   -14.94 дБ      3:07 06-No Higher Duty
DR8       -0.36 дБ   -11.13 дБ      2:39 07-Amsterdam
DR10      -0.50 дБ   -13.90 дБ      1:24 08-Interrogation
DR10      -2.43 дБ   -17.73 дБ      0:57 09-Turkey
DR7       -0.36 дБ   -10.25 дБ      2:11 10-Trazbon Airfield
DR11      -0.49 дБ   -16.22 дБ      1:17 11-Give Us a Name
DR9       -0.50 дБ   -12.19 дБ      1:06 12-Fracture Jaw
DR11      -0.50 дБ   -15.98 дБ      0:53 13-Camp Haskins
DR7       -0.54 дБ    -9.75 дБ      3:21 14-Vietnamese Village
DR7       -0.47 дБ    -9.46 дБ      2:24 16-Flying Assault
DR10      -0.49 дБ   -13.16 дБ      3:28 17-Stakeout
DR10      -0.50 дБ   -13.94 дБ      3:52 18-Tracking Volkov
DR13      -0.50 дБ   -15.63 дБ      4:08 19-The Informant-Find Briefcase
DR7       -0.49 дБ    -9.66 дБ      1:02 20-Escape
DR8       -1.91 дБ   -12.75 дБ      2:52 21-Cuban Crisis
DR9       -1.30 дБ   -14.08 дБ      1:58 22-Palace Intrigue
DR10      -0.50 дБ   -12.35 дБ      1:47 23-Searching for the Nuke Room
DR9       -1.56 дБ   -13.69 дБ      1:04 24-Room 27b
DR8       -0.39 дБ   -10.97 дБ      3:20 25-Rooftop Fray
DR9       -0.49 дБ   -12.84 дБ      3:43 26-Amerika Town
DR10      -0.49 дБ   -12.31 дБ      0:58 28-Hacking the Command Center
DR8       -0.47 дБ   -10.33 дБ      2:08 29-Exit Amerika
DR10      -0.50 дБ   -14.75 дБ      2:36 30-Confronting Hudson
DR9       -0.75 дБ   -13.89 дБ      1:23 31-Yamantau Ridge
DR9       -0.48 дБ   -11.72 дБ      1:10 32-Satcom
DR10      -0.50 дБ   -13.97 дБ      1:09 33-Through the Tunnels
DR10      -0.50 дБ   -13.85 дБ      1:46 34-Surveying
DR7       -0.47 дБ    -9.99 дБ      3:05 35-Seize the Server
DR10      -0.66 дБ   -14.30 дБ      1:27 36-Bell on the Inside
DR12      -0.50 дБ   -16.15 дБ      2:30 37-Searching
DR11      -0.50 дБ   -15.14 дБ      2:55 38-Undercover
DR6       -0.47 дБ    -8.52 дБ      3:23 39-Comrades in Arms
DR6       -0.50 дБ    -8.76 дБ      0:54 40-Lockdown
DR7       -0.49 дБ    -9.61 дБ      2:32 41-Intel Escape
DR8       -0.50 дБ   -12.72 дБ      1:07 42-Prisoner
DR8       -0.48 дБ   -10.56 дБ      2:03 43-Ruộng lúa
DR10      -0.50 дБ   -13.83 дБ      2:10 45-Ruộng lúa hai
DR12      -0.50 дБ   -15.14 дБ      3:31 46-Who Am I?
DR8       -0.49 дБ   -10.17 дБ      2:05 47-Ruộng lúa ba
DR7       -0.50 дБ   -10.64 дБ      1:55 48-This Ends Now
DR7       -0.48 дБ   -10.14 дБ      1:48 49-The Siege
DR7       -0.49 дБ   -10.21 дБ      1:48 50-Final Retribution
DR12      -0.50 дБ   -18.33 дБ      2:35 51-Comrade
--------------------------------------------------------------------------------
Количество треков: 51
Реальные значения DR: DR9
Частота:  44100 Гц
Каналов:  2
Разрядность:  16
Битрейт:  579 кбит/с

Кодек:  FLAC

www.yxtsbbs.com

回复可见

这可是好东西 拿走了

17# 2021-12-06 12:07

谢谢

16# 2021-04-25 12:48

谢谢大佬辛苦了

15# 2021-03-11 21:20

谢谢大佬

14# 2021-03-11 21:17

谢谢
嘻嘻嘻嘻嘻嘻嘻嘻

13# 2021-02-27 13:15

?为毛回复了也看不到内容

12# 2021-02-27 13:14

感谢分享

11# 2021-02-06 11:47

一直在找这个,感谢分享

10# 2021-02-06 11:46

感谢分享

9# 2021-02-03 03:49

谢楼主分享

8# 2021-01-05 20:20

看看

7# 2021-01-02 15:16

谢谢发布,辛苦了。。。。。。

6# 2020-12-27 16:41

好东西,找了很久了

5# 2020-12-08 18:06

这可是好东西 拿走了

4# 2020-12-08 18:05

这可是好东西 拿走了!!

3# 2020-12-05 17:49

谢谢分享

2# 2020-12-05 17:45

到底怎么看全部

1# 2020-12-05 17:45

emmmmm

新窗口打开 关闭