【5866】 钟明秋 -爱有天意 1:1母盘直刻 2015 原抓WAV+CUE

回复 已回复9 星标
更多
分类置顶

【5866】 钟明秋 -爱有天意 1:1母盘直刻 2015 原抓WAV+CUE

专辑名称:爱有天意 1:1母盘直刻
专辑艺人:钟明秋
发行公司:天艺文化传播有限公司
出版公司:深圳音像公司
发行时间:2015年07月26日
资源类型: 原抓WAV+CUE
专辑简介:
或许你曾爱的遍体凌伤,或许你曾发誓不再相信爱情。当你茫然间,暮然回首,一个轻柔的声音,似乎正在呼唤着你。温暖的声线,唱着淡淡的忧伤,清澈的男声,诉说着爱情的真切。满含爱意的歌声如甘泉般,泛着波光,静静流淌。环绕你,轻吻你,抚慰你。当经历过爱情的种种后,再次被充满温暖与希望的歌声拥抱的你,是否愿意相信,爱有天意。
制作人语:
因为之前我也听了明秋的一些专辑,也唱了一些相对会苦情一点点的情歌。但我们根据对明秋的了解,感觉他还是比较阳光的,然后他的音色也是比较温暖的。再加上现在这个社会我觉得也需要一点给人们正能量的东西。所以希望他能够调整一下,做一个无论是形象上面,还是音色上面都能给别人温暖的这么一个暖男的感觉。所以说虽然我们也选择了一些原创上是比较苦情的情歌,但是希望能在里面见到些许的阳光。在音乐的风格和演唱方式上我们都做了一些调整,包括编配。相对来说歌曲会显得轻松一点。哪怕是苦情,但是在忧伤里面能感受到温暖,感受到希望。这正符合他形象的定位和音色的定位。所以做了一些局部的调整,这样我觉得对他整体的音乐感受来说,跟之前的那种感受呢,会有一点点的变化。
原音母版1:1直刻系列,母带工程师特制,母盘级品质直刻;
专辑曲目
01.我最亲爱的
02.春风吻上我的脸
03.那些女孩教我的事
04.原来你也在这里
05.藏在记忆里的歌
06.珍惜
07.最浪漫的事
08.不要对他说
09.流着泪的你的脸
10.她来听我的演唱会
11.你知道我在等你吗

12.最远的距离

REM GENRE 发烧人声
REM DATE 2015
REM COMMENT 高解析音乐
PERFORMER "钟明秋"
TITLE "爱有天意 1:1母盘直刻"

FILE "钟明秋 - 爱有天意 1:1母盘直刻.wav" WAVE

TRACK 01 AUDIO
TITLE "我最親愛的"
PERFORMER "钟明秋"
INDEX 01 00:00:00
TRACK 02 AUDIO
TITLE "春風吻上我的臉"
PERFORMER "钟明秋"
INDEX 01 04:30:54
TRACK 03 AUDIO
TITLE "那些女孩教我的事"
PERFORMER "钟明秋"
INDEX 01 07:52:27
TRACK 04 AUDIO
TITLE "原來你也在這裡"
PERFORMER "钟明秋"
INDEX 01 12:32:06
TRACK 05 AUDIO
TITLE "藏在記憶裡的歌"
PERFORMER "钟明秋"
INDEX 01 16:24:56
TRACK 06 AUDIO
TITLE "珍惜"
PERFORMER "钟明秋"
INDEX 01 20:39:51
TRACK 07 AUDIO
TITLE "最浪漫的事"
PERFORMER "钟明秋"
INDEX 01 25:03:61
TRACK 08 AUDIO
TITLE "不要對他說"
PERFORMER "钟明秋"
INDEX 01 29:56:11
TRACK 09 AUDIO
TITLE "流著淚的你的臉"
PERFORMER "钟明秋"
INDEX 01 34:53:30
TRACK 10 AUDIO
TITLE "她來聽我的演唱會"
PERFORMER "钟明秋"
INDEX 01 39:39:56
TRACK 11 AUDIO
TITLE "你知道我在等你嗎"
PERFORMER "钟明秋"
INDEX 01 45:29:42
TRACK 12 AUDIO
TITLE "最遠的距離"
PERFORMER "钟明秋"

INDEX 01 50:22:55

www.yxtsbbs.com

回复可见

 好盘,支持 

8# 2022-07-02 22:09

 好碟,值得一听

7# 2022-06-16 15:20

thanks

6# 2022-02-02 14:20

值得一听

5# 2022-02-02 14:18

好盘,支持 

4# 2021-05-22 21:27

好盘

3# 2021-03-17 11:19

支持

2# 2021-01-31 22:26

谢谢你了

1# 2021-01-02 13:37

好碟,值得一听

新窗口打开 关闭