【6475】群星-奥斯卡 100年 经典重现 [开盘母带直刻1:1] 原抓WAV+CUE

回复 已回复1 星标
更多

【6475】群星-奥斯卡 100年 经典重现 [开盘母带直刻1:1] 原抓WAV+CUE 

专辑名称:100年奥斯卡经典重现
外文名:100 Years Oscar classic reproduction
碟数:1CD
出版:武汉音像出版社
曲目:
01 Myheart willgo on 爱无止尽
02 Right here waiting 此情可待
03 Love you forever 爱你到永远
04 Unchained melody 奔放的旋律
05 Without you 没有你
06 Hotel California 加州旅馆
07 Argentina do not cry for me 阿根廷别为我哭泣
08 Casablance 卡萨布兰卡
09 Take my breath 带走我的呼吸
10 When a man falls in love with a woman 当男人爱上女人
11 Say you say me 说你说我
12 Power of love 爱的力量
13 Translate against you 对你倾情

14 Beauty and the Beast 美女和野兽


Exact Audio Copy V1.1 from 23. June 2015

EAC 抓取日志文件从10. 四月 2021, 4:52

奥斯卡 / 100经典重现

使用驱动器  :TEAC    CD-W54E  Adapter: 1  ID: 0

读取模式      : 可靠Secure
使用精确流     : 是
清空音频缓存    : 是
使用 C2 指示器 : 否

读取偏移校正:               : 685
读取 Lead-In 和 Lead-Out : 否
用静音填充抓取中丢失偏移的采样       : 是
去除首尾静音块               : 否
 在CRC 计算中使用了空样本       : 是
已用接口                  : Win NT 及 2000 本地 Win32 接口

所用输出模式: : 内部 WAV 函数
样本格式    : 44.100 Hz; 16 Bit; 立体声


已抓取 CD 的 TOC

     音轨 |    起始    |    长度    |  起始扇区  |  结束扇区  
    --------------------------------------------
      1 |  0:00.00 |  4:44.24 |      0 |  21323 
      2 |  4:44.24 |  4:26.29 |  21324 |  41302 
      3 |  9:10.53 |  4:36.62 |  41303 |  62064 
      4 | 13:47.40 |  3:38.02 |  62065 |  78416 
      5 | 17:25.42 |  3:34.15 |  78417 |  94481 
      6 | 20:59.57 |  6:53.73 |  94482 | 125529 
      7 | 27:53.55 |  4:52.00 | 125530 | 147429 
      8 | 32:45.55 |  4:38.61 | 147430 | 168340 
      9 | 37:24.41 |  4:15.72 | 168341 | 187537 
    10 | 41:40.38 |  3:52.35 | 187538 | 204972 
    11 | 45:32.73 |  4:04.65 | 204973 | 223337 
    12 | 49:37.63 |  5:55.61 | 223338 | 250023 
    13 | 55:33.49 |  6:36.25 | 250024 | 279748 
    14 | 62:09.74 |  4:07.70 | 279749 | 298343 


范围状态及错误

已选择范围

     文件名 D:\奥斯卡 - 100经典重现.wav

     峰值电平 100.0 %
     抓取速度 0.7 X
     范围质量 99.8 %
     复制 CRC AA39F4A7
     复制成功

没有错误发生

状态报告结尾

---- CUETools DB Plugin V2.1.6

[CTDB TOCID: YqU7_ZQqNqrzOV66u8xpnpiPSjM-] found
Submit result: YqU7_ZQqNqrzOV66u8xpnpiPSjM- has been confirmed
Track | CTDB Status
  1   | (5/5) Accurately ripped
  2   | (5/5) Accurately ripped
  3   | (5/5) Accurately ripped
  4   | (5/5) Accurately ripped
  5   | (5/5) Accurately ripped
  6   | (5/5) Accurately ripped
  7   | (5/5) Accurately ripped
  8   | (5/5) Accurately ripped
  9   | (5/5) Accurately ripped
10   | (5/5) Accurately ripped
11   | (5/5) Accurately ripped
12   | (5/5) Accurately ripped
13   | (5/5) Accurately ripped

14   | (5/5) Accurately ripped


群星-奥斯卡 100年 经典重现 [开盘母带直刻1:1] 原抓WAV+CUE
| |-奥斯卡 - 100经典重现.wav
| |-COVER.jpg
| |-CD内.jpg
| |-CD.jpg
| |-BACK.jpg
| |-奥斯卡 - 100经典重现.log
| |-奥斯卡 - 100经典重现.cue
| |-专辑曲目.txt

感谢分享!

新窗口打开 关闭