【6596】樱花大战-檄!帝国華撃団全集 WAV+CUE

回复 星标
更多

【6596】樱花大战-檄!帝国華撃団全集  WAV+CUE

发行时间: 2006-07-19
出版者: WAVE MASTER
PS:岛国的CD信息,只能从豆瓣上去扒了,哈哈。这个是樱花大战主题曲(檄!帝国華撃団)的各种唱法合集,一次性让你把这首主题曲听到吐 :)
曲目· · · · · ·
檄!帝国華撃団
檄!帝国華撃団(改)
檄!帝国華撃団(改2)
檄!帝国華撃団3
ゲキテイ!
ユーロゲキテイ
ゲキテイ音頭
檄!帝~最終章~
檄!帝国華撃団(オリジナルカラオケ)
檄!帝国華撃団(改)(オリジナルカラオケ)
檄!帝国華撃団(改)~歌謡ショウ「紅蜥蜴」より~
檄!帝国華撃団~さくら・仙台弁~
檄!帝国華撃団~マリア・ロシア語~
檄!帝国華撃団~アイリス・フランス語~
檄!帝国華撃団~紅蘭・中国語~
檄!帝国華撃団~カンナ・沖縄弁~
檄!帝国華撃団~織姫・イタリア語~
檄!帝国華撃団~レニ・ドイツ語~
******************************分隔线******************************
Exact Audio Copy V1.2 from 12. August 2016
EAC 抓取日志文件从18. 十二月 2020, 17:18
未知艺术家 / 檄!帝国華撃団全集
使用驱动器:HL-DT-STDVD-ROM DUE0N Adapter: 1ID: 0
读取模式  : 可靠Secure
使用精确流 : 是
清空音频缓存  : 否
使用 C2 指示器 : 是
读取偏移校正:     : 102
读取 Lead-In 和 Lead-Out : 否
用静音填充抓取中丢失偏移的采样   : 是
去除首尾静音块     : 否
在CRC 计算中使用了空样本   : 是
已用接口      : Win NT 及 2000 本地 Win32 接口
所用输出模式: : 内部 WAV 函数
样本格式  : 44.100 Hz; 16 Bit; 立体声
已抓取 CD 的 TOC
音轨 |  起始  |  长度  |起始扇区|结束扇区
--------------------------------------------
1 |0:00.00 |3:01.27 |  0 |13601 
2 |3:01.27 |3:53.35 |13602 |31111 
3 |6:54.62 |3:54.32 |31112 |48693 
4 | 10:49.19 |2:58.60 |48694 |62103 
5 | 13:48.04 |2:58.33 |62104 |75486 
6 | 16:46.37 |2:43.72 |75487 |87783 
7 | 19:30.34 |2:41.60 |87784 |99918 
8 | 22:12.19 |3:22.23 |99919 | 115091 
9 | 25:34.42 |3:00.50 | 115092 | 128641 
10 | 28:35.17 |3:54.18 | 128642 | 146209 
11 | 32:29.35 |4:00.22 | 146210 | 164231 
12 | 36:29.57 |2:32.00 | 164232 | 175631 
13 | 39:01.57 |2:29.52 | 175632 | 186858 
14 | 41:31.34 |2:29.20 | 186859 | 198053 
15 | 44:00.54 |2:29.15 | 198054 | 209243 
16 | 46:29.69 |2:30.03 | 209244 | 220496 
17 | 48:59.72 |2:28.63 | 220497 | 231659 
18 | 51:28.60 |2:29.73 | 231660 | 242907 
范围状态及错误
已选择范围
文件名 E:\檄!帝国華撃団全集未知艺术家 - 檄!帝国華撃団全集.wav
峰值电平 98.8 %
抓取速度 13.5 X
范围质量 100.0 %
复制 CRC 82C4A698
复制成功
没有错误发生
AccurateRip 摘要
音轨1精确地校准抓取13)[FC457753](AR v2)
音轨2精确地校准抓取13)[B52AE4CB](AR v2)
音轨3精确地校准抓取13)[96E7F5E7](AR v2)
音轨4精确地校准抓取13)[83C537B4](AR v2)
音轨5精确地校准抓取13)[2F305DE7](AR v2)
音轨6精确地校准抓取12)[33028044](AR v2)
音轨7精确地校准抓取12)[1748E6B1](AR v2)
音轨8精确地校准抓取12)[E6AF5C86](AR v2)
音轨9精确地校准抓取12)[EE4AA7D7](AR v2)
音轨 10精确地校准抓取12)[04FA908D](AR v2)
音轨 11精确地校准抓取12)[3B451A94](AR v2)
音轨 12精确地校准抓取12)[206DE39F](AR v2)
音轨 13精确地校准抓取12)[9B54D801](AR v2)
音轨 14精确地校准抓取12)[5F865B45](AR v2)
音轨 15精确地校准抓取12)[19CD1E07](AR v2)
音轨 16精确地校准抓取12)[ACF59B00](AR v2)
音轨 17精确地校准抓取12)[2C800C0A](AR v2)
音轨 18精确地校准抓取11)[57B4933E](AR v2)
所有音轨精确校准抓取
状态报告结尾
---- CUETools DB Plugin V2.1.6
[CTDB TOCID: 5l7o5zFTrc.b3WHHwj0bu6bLDjc-] found
Submit result: 5l7o5zFTrc.b3WHHwj0bu6bLDjc- has been confirmed
Track | CTDB Status
1 | (138/139) Accurately ripped
2 | (138/139) Accurately ripped
3 | (139/139) Accurately ripped
4 | (139/139) Accurately ripped
5 | (139/139) Accurately ripped
6 | (138/139) Accurately ripped
7 | (136/139) Accurately ripped
8 | (137/139) Accurately ripped
9 | (138/139) Accurately ripped
10 | (138/139) Accurately ripped
11 | (137/139) Accurately ripped
12 | (138/139) Accurately ripped
13 | (135/139) Accurately ripped
14 | (138/139) Accurately ripped
15 | (139/139) Accurately ripped
16 | (139/139) Accurately ripped
17 | (136/139) Accurately ripped
18 | (129/139) Accurately ripped
新窗口打开 关闭