【6932】海来阿木《忧伤歌王DSD》2CD 2020纯银镀层 [WAV+CUE]

回复 已回复1 星标
更多

【6932】海来阿木《忧伤歌王DSD》2CD 2020纯银镀层 [WAV+CUE]

专辑名称:忧伤歌王 DSD

演唱歌手:海来阿木
碟片编号:DF-172AB
I  S  B  N:978-7-88372-789-7
发行时间:2020年
资源格式:WAV+CUE
出品公司:广州良品文化传播有限公司
专辑介绍:
海来阿木的歌,一把沙哑的烟嗓唱出多少心酸和无奈,写尽人生心酸,唱出了多少人的感慨!
每个音符里都盛满了孤独和忧伤。
全新A2HD5后期处理模式给你带来无限惊喜
纯银超卓反射音色精美绝伦!
CD1:
01. 不过人间
02. 点歌的人
03. 一腔少年
04. 孤单的人
05. 青山一别
06. 一别两宽
07. 为爱止步
08. 奈何岁月
09. 远方有信仰
10. 思念一瞬间
11. 一世薄凉
12. 相遇花开
13. 我最心爱的你
14. 来过你生命的我
15. 一人一马一江湖
CD2:
01. 你的万水千山
02. 阿果吉曲
03. 别知己
04. 月亮妈妈
05. 阿妹的酒
06. 天上的花
07. 桃花缘
08. 归
09. 卓雅
10. 热播剧
11. 他去了木里
12. 差一点忘记你
13. 假装快乐假装难过
14. 难以忘怀你

15. 当我想起母亲您



Exact Audio Copy V1.1 from 23. June 2015
EAC 抓取日志文件从29. 四月 2021, 22:28
未知艺术家 / 未知标题
使用驱动器  :TSSTcorpDVD-ROM SH-118CB  Adapter: 1  ID: 0
读取模式      : 可靠Secure
使用精确流     : 是
清空音频缓存    : 是
使用 C2 指示器 : 否
组合读写偏移校正:             : 0
读取 Lead-In 和 Lead-Out : 否
用静音填充抓取中丢失偏移的采样       : 是
去除首尾静音块               : 否
在CRC 计算中使用了空样本       : 是
已用接口                  : Win NT 及 2000 本地 Win32 接口
所用输出模式: : 内部 WAV 函数
样本格式    : 44.100 Hz; 16 Bit; 立体声
已抓取 CD 的 TOC
音轨 |    起始    |    长度    |  起始扇区  |  结束扇区  
--------------------------------------------
1 |  0:00.00 |  4:09.40 |      0 |  18714 
2 |  4:09.40 |  3:13.70 |  18715 |  33259 
3 |  7:23.35 |  3:30.49 |  33260 |  49058 
4 | 10:54.09 |  3:28.07 |  49059 |  64665 
5 | 14:22.16 |  4:17.72 |  64666 |  84012 
6 | 18:40.13 |  4:43.34 |  84013 | 105271 
7 | 23:23.47 |  4:36.74 | 105272 | 126045 
8 | 28:00.46 |  5:39.03 | 126046 | 151473 
9 | 33:39.49 |  4:00.47 | 151474 | 169520 
10 | 37:40.21 |  4:56.26 | 169521 | 191746 
11 | 42:36.47 |  5:14.50 | 191747 | 215346 
12 | 47:51.22 |  3:58.17 | 215347 | 233213 
13 | 51:49.39 |  4:18.22 | 233214 | 252585 
14 | 56:07.61 |  4:32.38 | 252586 | 273023 
15 | 60:40.24 |  3:35.28 | 273024 | 289176 
范围状态及错误
已选择范围
文件名 D:\新建文件夹\海来阿木 - 忧伤歌王CD1.wav
峰值电平 100.0 %
抓取速度 3.1 X
范围质量 100.0 %
复制 CRC 6986CF17
复制成功
没有错误发生
状态报告结尾
2021-05-25 11:01:21更新过

怎么下载?

新窗口打开 关闭