【6977】姚璎格 - 红 苏联经典 24K金碟 限量编号签名首版 2021 [原抓WAV+CUE]

回复 已回复1 星标
更多
分类置顶

【6977】姚璎格 - 红 苏联经典 24K金碟  限量编号签名首版 2021 [原抓WAV+CUE]

曲目:

01.莫斯科郊外的晚上
02.山楂树
03.小路
04.喀秋莎
05.不要责备我吧,妈妈
06.有谁知道他
07.漆黑的夜
08.黑眼睛
09.茫茫草原
10.红莓花儿开
11.灯光

12.共青团员之歌



Exact Audio Copy V1.1 from 23. June 2015
EAC 抓取日志文件从30. 五月 2021, 15:26
姚璎格 / 红·苏联经典24K
使用驱动器  :TEAC    CD-W54E  Adapter: 1  ID: 0
读取模式      : 可靠Secure
使用精确流     : 是
清空音频缓存    : 是
使用 C2 指示器 : 否
读取偏移校正:               : 685
读取 Lead-In 和 Lead-Out : 否
用静音填充抓取中丢失偏移的采样       : 是
去除首尾静音块               : 否
在CRC 计算中使用了空样本       : 是
已用接口                  : Win NT 及 2000 本地 Win32 接口
所用输出模式: : 内部 WAV 函数
样本格式    : 44.100 Hz; 16 Bit; 立体声
已抓取 CD 的 TOC
音轨 |    起始    |    长度    |  起始扇区  |  结束扇区  
--------------------------------------------
1 |  0:00.00 |  4:00.17 |      0 |  18016 
2 |  4:00.17 |  4:24.07 |  18017 |  37823 
3 |  8:24.24 |  4:24.65 |  37824 |  57688 
4 | 12:49.14 |  3:27.56 |  57689 |  73269 
5 | 16:16.70 |  3:39.33 |  73270 |  89727 
6 | 19:56.28 |  3:39.72 |  89728 | 106224 
7 | 23:36.25 |  4:36.52 | 106225 | 126976 
8 | 28:13.02 |  3:23.09 | 126977 | 142210 
9 | 31:36.11 |  5:02.00 | 142211 | 164860 
10 | 36:38.11 |  3:24.21 | 164861 | 180181 
11 | 40:02.32 |  3:40.59 | 180182 | 196740 
12 | 43:43.16 |  2:50.04 | 196741 | 209494 
范围状态及错误
已选择范围
文件名 D:\姚璎格 - 红·苏联经典24K.wav
峰值电平 99.8 %
抓取速度 2.5 X
范围质量 100.0 %
复制 CRC 0FB0A69E
复制成功
没有错误发生

状态报告结尾


|——【6977】姚璎格 - 红 苏联经典 24K金碟  限量编号签名首版 2021 [原抓WAV+CUE]
| |-01.jpg
| |-02.jpg
| |-03.jpg
| |-04.jpg
| |-05.jpg
| |-06.jpg
| |-07.jpg
| |-08.jpg
| |-09.jpg
| |-10.jpg
| |-11.jpg
| |-BACK.jpg
| |-CD.jpg
| |-CD内.jpg
| |-COVER.jpg
| |-封背1.jpg
| |-封背2.jpg
| |-封面1.jpg
| |-封面2.jpg
| |-内页.jpg
| |-姚璎格 - 红·苏联经典24K.cue
| |-姚璎格 - 红·苏联经典24K.wav
| |-专辑曲目.txt

很好听的音乐

新窗口打开 关闭