【7052】泰坦尼克号终极名盘 Titanic - The Ultimate Collection 24K金碟 日本天龙版 [WAV+CUE]

回复 已回复1 星标
更多
分类置顶

【7052】泰坦尼克号终极名盘  Titanic - The Ultimate Collection 24K金碟 日本天龙版  [WAV+CUE]

专辑曲目:
01.Never an Absolution (James Cameron film Titanic 1997)
02.Rose's Theme (My Heart Will Go On - Solo Piano Version) (James Cameron film TITANIC)
03.Distant Memories (James Cameron film Titanic 1997)
04.Southampton (James Cameron film Titanic 1997)
05.Titanic (1996 Miniseries Titanic)
06.Rose (James Cameron film Titanic 1997)
07.The Proposal, The Night Was Alive (Broadway Musical Titanic)
08.Main Title, Epilogue (British Rank film A Night to Remember 1958)
09 No Moon (Broadway Musical Titanic)
10.Titanic (20th Century Fox film Titanic 1953)
11.Autumn (Broadway Musical Titanic)
12.A Promise Kept (James Cameron film Titanic 1997)
13.Rose's Theme (My Heart Will Go On) (James Cameron film Titanic 1997)
14.Nearer My God to Thee (traditional)
15.A Life So Changed, An Ocean of Memories (James Cameron film Titanic 1997)

16 My Heart Will Go On (James Cameron film Titanic 1997)



Exact Audio Copy V1.1 from 23. June 2015

EAC 抓取日志文件从4. 六月 2021, 16:34
Various / Titanic - The Ultimate Collection
使用驱动器  :TEAC    CD-W54E  Adapter: 1  ID: 0
读取模式      : 可靠Secure
使用精确流     : 是
清空音频缓存    : 是
使用 C2 指示器 : 否
读取偏移校正:               : 685
读取 Lead-In 和 Lead-Out : 否
用静音填充抓取中丢失偏移的采样       : 是
去除首尾静音块               : 否
在CRC 计算中使用了空样本       : 是
已用接口                  : Win NT 及 2000 本地 Win32 接口
所用输出模式: : 内部 WAV 函数
样本格式    : 44.100 Hz; 16 Bit; 立体声
已抓取 CD 的 TOC
音轨 |    起始    |    长度    |  起始扇区  |  结束扇区  
--------------------------------------------
1 |  0:00.00 |  3:14.00 |      0 |  14549 
2 |  3:14.00 |  3:34.37 |  14550 |  30636 
3 |  6:48.37 |  2:47.63 |  30637 |  43224 
4 |  9:36.25 |  3:59.50 |  43225 |  61199 
5 | 13:36.00 |  3:11.25 |  61200 |  75549 
6 | 16:47.25 |  2:43.00 |  75550 |  87774 
7 | 19:30.25 |  4:36.12 |  87775 | 108486 
8 | 24:06.37 |  4:04.63 | 108487 | 126849 
9 | 28:11.25 |  3:24.12 | 126850 | 142161 
10 | 31:35.37 |  1:39.13 | 142162 | 149599 
11 | 33:14.50 |  5:33.25 | 149600 | 174599 
12 | 38:48.00 |  3:11.25 | 174600 | 188949 
13 | 41:59.25 |  6:56.62 | 188950 | 220211 
14 | 48:56.12 |  3:45.63 | 220212 | 237149 
15 | 52:42.00 |  4:29.62 | 237150 | 257386 
16 | 57:11.62 |  5:00.13 | 257387 | 279899 
范围状态及错误
已选择范围
文件名 D:\Various - Titanic - The Ultimate Collection.wav
峰值电平 95.3 %
抓取速度 2.5 X
范围质量 100.0 %
复制 CRC A92D441D
复制成功
没有错误发生

状态报告结尾



|——【7052】泰坦尼克号终极名盘  Titanic - The Ultimate Collection(24K 天龙 1MM1 典藏版)》[WAV+CUE]
| |-Artwork
| | |-COVER.jpg
| | |-CD.jpg
| | |-BACK.jpg
| | |-18.jpg
| | |-17.jpg
| | |-16.jpg
| | |-15.jpg
| | |-14.jpg
| | |-13.jpg
| | |-12.jpg
| | |-11.jpg
| | |-10.jpg
| | |-09.jpg
| | |-08.jpg
| | |-07.jpg
| | |-06.jpg
| | |-05.jpg
| | |-04.jpg
| | |-03.jpg
| | |-02.jpg
| | |-01.jpg
| | |-CD 内.jpg
| | |-19.jpg
| |-Various - Titanic - The Ultimate Collection.wav
| |-专辑简介.txt
| |-Various - Titanic - The Ultimate Collection.log
| |-Various - Titanic - The Ultimate Collection.cue

怎么下?

新窗口打开 关闭