【7271】林子祥 - BEST SOUND BEST HITS [2016年华纳 UPM 24K金碟] WAV+CUE

回复 已回复1 星标
更多

【7271】林子祥 - BEST SOUND BEST HITS [2016年华纳 UPM 24K金碟] WAV+CUE

1106644

ULTIMATE PROFESSIONAL MASTERING(简称UPM) 

CD制式中至靓材质

UPM24KCD 华纳大厂牌出品 日本制造 

母带处理技术前所未有之极大突破 

划时代挑战极限 震撼人心之作 

尽现母带最完美极致音色 

限量发行1000张有编号 

唱片歌手:林子祥

唱片名称:【林子祥 BEST SOUND BEST HITS】UPM24K金碟

发行公司:环球唱片

唱片语言:粤语

发行时间:2016年11月28日

唱片环码:5054197253522 861 外圈IFPI:L158 内圈IFPI:448J  限量版编号:No.0651

文件格式:EAC抓WAV整轨+CUE+LOG

曲目:

01. 最爱是谁    

02. 似梦迷离    

03. 水中莲     

04. 千亿个夜晚    

05. 旧居中的钢琴

06. 莫再悲      

07. 每一个晚上  

08. 水仙情     

09. 追忆          

10. 改变常改变

11. 迈步向前   

12. 谁能明白我  

13. 仍然记得个一次   

14. 情深再别提

15. 这一个晚   

16. 将心意尽诉   

17. 曾经



Exact Audio Copy V1.0 beta 3 from 29. August 2011
EAC 抓取日志文件从21. 一月 2017, 3:36
林子祥 / BEST SOUND BEST HITS UPM24K金碟
使用驱动器  :TEAC    CD-540E  Adapter: 1  ID: 0
读取模式      : 可靠Secure
使用精确流     : 是
清空音频缓存    : 是
使用 C2 指示器 : 否
组合读写偏移校正:             : -220
读取 Lead-In 和 Lead-Out : 否
用静音填充抓取中丢失偏移的采样       : 是
去除首尾静音块               : 否
在CRC 计算中使用了空样本       : 是
已用接口                  : Win NT 及 2000 本地 Win32 接口
所用输出模式: : 内部 WAV 函数
样本格式    : 44.100 Hz; 16 Bit; 立体声
已抓取 CD 的 TOC
音轨 |    起始    |    长度    |  起始扇区  |  结束扇区  
--------------------------------------------
1 |  0:00.00 |  3:31.72 |      0 |  15896 
2 |  3:31.72 |  3:23.52 |  15897 |  31173 
3 |  6:55.49 |  5:41.40 |  31174 |  56788 
4 | 12:37.14 |  5:27.07 |  56789 |  81320 
5 | 18:04.21 |  5:13.44 |  81321 | 104839 
6 | 23:17.65 |  3:31.11 | 104840 | 120675 
7 | 26:49.01 |  4:19.28 | 120676 | 140128 
8 | 31:08.29 |  3:50.55 | 140129 | 157433 
9 | 34:59.09 |  3:39.55 | 157434 | 173913 
10 | 38:38.64 |  4:15.15 | 173914 | 193053 
11 | 42:54.04 |  4:06.67 | 193054 | 211570 
12 | 47:00.71 |  3:19.10 | 211571 | 226505 
13 | 50:20.06 |  3:50.50 | 226506 | 243805 
14 | 54:10.56 |  4:48.01 | 243806 | 265406 
15 | 58:58.57 |  3:49.60 | 265407 | 282641 
16 | 62:48.42 |  4:41.59 | 282642 | 303775 
17 | 67:30.26 |  3:43.50 | 303776 | 320550 
范围状态及错误
已选择范围
文件名 J:\本人原抓音轨\林子祥 BEST SOUND BEST HITS UPM24K金碟 blkgb原抓\林子祥 - BEST SOUND BEST HITS UPM24K金碟.wav
峰值电平 99.3 %
抓取速度 2.2 X
范围质量 100.0 %
复制 CRC 36317280
复制成功
没有错误发生

状态报告结尾



|——【7271】林子祥 - BEST SOUND BEST HITS [2016年华纳 UPM 24K金碟] WAV+CUE
| |-IMG_3921.JPG
| |-IMG_3922.JPG
| |-IMG_3925.JPG
| |-IMG_3926.JPG
| |-IMG_4026.JPG
| |-IMG_4029.JPG
| |-IMG_4030.JPG
| |-IMG_4032.JPG
| |-IMG_4036.JPG
| |-IMG_4037.JPG
| |-IMG_4044.JPG
| |-IMG_4046.JPG
| |-IMG_4048.JPG
| |-IMG_4051.JPG
| |-IMG_4053.JPG
| |-IMG_4055.JPG
| |-IMG_4062.JPG
| |-林子祥 - BEST SOUND BEST HITS UPM24K金碟.cue
| |-林子祥 - BEST SOUND BEST HITS UPM24K金碟.log
| |-林子祥 - BEST SOUND BEST HITS UPM24K金碟.wav
| |-曲目.txt
2021-07-24 10:01:22更新过

UPM 24K金碟 WAV+CUE 可下载吗?多谢!

新窗口打开 关闭