【7272】梅艳芳 - ANITA MUI GREATEST HITS [UPM 24K金碟限量版] 2016年 WAV+CUE

回复 已回复2 星标
更多

【7272】梅艳芳 - ANITA MUI GREATEST HITS [UPM 24K金碟限量版] 2016年  WAV+CUE

1106645

ULTIMATE PROFESSIONAL MASTERING(简称UPM)译为“终极专业母带处理技术”

CD制式中之至靓金碟 

UPM24KCD 日本制造 

母带处理技术前所未有之极大突破 

划时代挑战极限 震撼人心之作 

尽现母带最完美极致音色 

限量发行1000张编号版 

唱片歌手:梅艳芳

唱片名称:【梅艳芳 ANITA MUI GREATEST HITS】

发行公司:华星/华纳

唱片语言:粤语

发行时间:2016年

唱片环码:4897013011170 861 外圈IFPI:L158 内圈IFPI:448J

文件格式:EAC抓WAV整轨+CUE+LOG+高清内页图

01. 逝去的爱  

02. 蔓珠莎华  

03. 梦幻的拥抱  

04. 似水流年    

05. 夕阳之歌

06. 交出我的心  

07. 女人心   

08. 梦裡共醉      

09. 朦胧夜雨裡  

10. 孤身走我路

11. 珍惜再会时   

12. 两心未变  

13. 情归何处  

14. 耶利亚   

15. 爱你,想你

16. 装饰的眼泪



Exact Audio Copy V1.0 beta 3 from 29. August 2011
EAC 抓取日志文件从20. 一月 2017, 11:50
梅艳芳 / GREATEST HITS UPMCD 24K金碟
使用驱动器  :TEAC    CD-540E  Adapter: 1  ID: 0
读取模式      : 可靠Secure
使用精确流     : 是
清空音频缓存    : 是
使用 C2 指示器 : 否
组合读写偏移校正:             : -220
读取 Lead-In 和 Lead-Out : 否
用静音填充抓取中丢失偏移的采样       : 是
去除首尾静音块               : 否
在CRC 计算中使用了空样本       : 是
已用接口                  : Win NT 及 2000 本地 Win32 接口
所用输出模式: : 内部 WAV 函数
样本格式    : 44.100 Hz; 16 Bit; 立体声
已抓取 CD 的 TOC
音轨 |    起始    |    长度    |  起始扇区  |  结束扇区  
--------------------------------------------
1 |  0:00.00 |  4:36.53 |      0 |  20752 
2 |  4:36.53 |  5:06.27 |  20753 |  43729 
3 |  9:43.05 |  5:24.67 |  43730 |  68096 
4 | 15:07.72 |  5:20.02 |  68097 |  92098 
5 | 20:27.74 |  5:10.27 |  92099 | 115375 
6 | 25:38.26 |  3:33.54 | 115376 | 131404 
7 | 29:12.05 |  4:24.03 | 131405 | 151207 
8 | 33:36.08 |  4:02.30 | 151208 | 169387 
9 | 37:38.38 |  5:21.51 | 169388 | 193513 
10 | 43:00.14 |  5:45.09 | 193514 | 219397 
11 | 48:45.23 |  4:21.60 | 219398 | 239032 
12 | 53:07.08 |  3:09.17 | 239033 | 253224 
13 | 56:16.25 |  4:28.57 | 253225 | 273381 
14 | 60:45.07 |  4:04.37 | 273382 | 291718 
15 | 64:49.44 |  4:29.03 | 291719 | 311896 
16 | 69:18.47 |  5:24.36 | 311897 | 336232 
范围状态及错误
已选择范围
文件名 J:\本人原抓音轨\梅艳芳 GREATEST HITS UPMCD 24K金碟 blkgb原抓\梅艳芳 - GREATEST HITS UPMCD 24K金碟.wav
峰值电平 100.0 %
抓取速度 2.2 X
范围质量 100.0 %
复制 CRC D8216861
复制成功
没有错误发生

状态报告结尾



|——【7272】梅艳芳 - ANITA MUI GREATEST HITS [UPM 24K金碟] 2016年  WAV+CUE
| |-捕获.PNG
| |-IMG_4106.JPG
| |-IMG_4108.JPG
| |-IMG_4112.JPG
| |-IMG_4115.JPG
| |-IMG_4117.JPG
| |-IMG_4124.JPG
| |-IMG_4128.JPG
| |-IMG_4134.JPG
| |-IMG_4135.JPG
| |-IMG_4139.JPG
| |-IMG_4140.JPG
| |-IMG_4142.JPG
| |-IMG_4152.JPG
| |-IMG_4154.JPG
| |-IMG_4157.JPG
| |-IMG_4159.JPG
| |-IMG_4163.JPG
| |-IMG_4167.JPG
| |-IMG_4168.JPG
| |-IMG_4171.JPG
| |-梅艳芳 - GREATEST HITS UPMCD 24K金碟.cue
| |-梅艳芳 - GREATEST HITS UPMCD 24K金碟.log
| |-梅艳芳 - GREATEST HITS UPMCD 24K金碟.wav
| |-目录.txt
2021-07-24 10:09:03更新过

UPM 24K金碟这个系列个人感觉特好!

1# 2022-07-04 14:20

UPM 24K金碟] WAV+CUE 可下载吗?

新窗口打开 关闭