【7339】李小沛录音《无他Ⅱ》头版限量编号24K金碟[低速原抓WAV+CUE]

回复 已回复3 星标
更多
分类置顶

【7339】李小沛录音《无他Ⅱ》头版限量编号24K金碟[低速原抓WAV+CUE]

曲目:

01.太阳照常升起
02.恋恋风尘
03.少女之吻
04.秦淮景
05.逍遥天地间
06.吾心安处
07.加林赛
08.明日情
09.乡愁四韵

10.流光溢彩



Exact Audio Copy V1.1 from 23. June 2015
EAC 抓取日志文件从29. 七月 2021, 13:46
李小沛 / 无他Ⅱ24K
使用驱动器  :TEAC    CD-W54E  Adapter: 1  ID: 0
读取模式      : 可靠Secure
使用精确流     : 是
清空音频缓存    : 是
使用 C2 指示器 : 否
读取偏移校正:               : 685
读取 Lead-In 和 Lead-Out : 否
用静音填充抓取中丢失偏移的采样       : 是
去除首尾静音块               : 否
在CRC 计算中使用了空样本       : 是
已用接口                  : Win NT 及 2000 本地 Win32 接口
所用输出模式: : 内部 WAV 函数
样本格式    : 44.100 Hz; 16 Bit; 立体声
已抓取 CD 的 TOC
音轨 |    起始    |    长度    |  起始扇区  |  结束扇区  
--------------------------------------------
1 |  0:00.00 |  5:17.72 |      0 |  23846 
2 |  5:17.72 |  5:13.18 |  23847 |  47339 
3 | 10:31.15 |  5:24.03 |  47340 |  71642 
4 | 15:55.18 |  5:08.04 |  71643 |  94746 
5 | 21:03.22 |  4:44.38 |  94747 | 116084 
6 | 25:47.60 |  5:36.53 | 116085 | 141337 
7 | 31:24.38 |  4:22.26 | 141338 | 161013 
8 | 35:46.64 |  5:21.23 | 161014 | 185111 
9 | 41:08.12 |  6:20.74 | 185112 | 213685 
10 | 47:29.11 |  4:14.47 | 213686 | 232782 
范围状态及错误
已选择范围
文件名 D:\李小沛 - 无他Ⅱ24K.wav
峰值电平 98.3 %
抓取速度 2.5 X
范围质量 100.0 %
复制 CRC AEF7CB54
复制成功
没有错误发生

状态报告结尾


|——【7339】李小沛录音《无他Ⅱ》头版限量编号24K金碟[低速原抓WAV+CUE]
| |-Artwork
| | |-封面2.jpg
| | |-封面1.jpg
| | |-封背2.jpg
| | |-封背1.jpg
| | |-COVER.jpg
| | |-BACK.jpg
| | |-15.jpg
| | |-14.jpg
| | |-13.jpg
| | |-12.jpg
| | |-11.jpg
| | |-10.jpg
| | |-09.jpg
| | |-08.jpg
| | |-07.jpg
| | |-06.jpg
| | |-05.jpg
| | |-04.jpg
| | |-03.jpg
| | |-02.jpg
| | |-01.jpg
| | |-CD内.jpg
| | |-CD.jpg
| |-李小沛 - 无他Ⅱ24K.wav
| |-李小沛 - 无他Ⅱ24K.log
| |-李小沛 - 无他Ⅱ24K.cue
| |-专辑曲目.txt

好碟好资源,录音好

2# 2022-06-29 17:14

非常棒的音乐,一定要支持

1# 2021-08-27 11:56

新专辑的确不错,谢谢分享!

新窗口打开 关闭