【8346】阿黛尔 Adele - 30 2021年 FLAC

回复 已回复3 星标
更多

【8346】阿黛尔 Adele - 30 2021年 FLAC

|——【8346】阿黛尔 Adele - 30 2021年 FLAC
| |-01 Strangers By Nature.flac
| |-02 Easy On Me.flac
| |-03 My Little Love.flac
| |-04 Cry Your Heart Out.flac
| |-05 Oh My God.flac
| |-06 Can I Get It.flac
| |-07 I Drink Wine.flac
| |-08 All Night Parking (Interlude).flac
| |-09 Woman Like Me.flac
| |-10 Hold On.flac
| |-11 To Be Loved.flac
| |-12 Love Is A Game.flac
| |-30.cue
| |-Adele - 30.log
| |-Adele - 30.m3u8

| |-cover.jpg



Exact Audio Copy V1.6 from 23. October 2020
EAC extraction logfile from 17. November 2021, 18:40
Adele / 30
Used drive  : HL-DT-STBD-RE WP50NB40  Adapter: 1  ID: 1
Read mode               : Secure
Utilize accurate stream : Yes
Defeat audio cache      : Yes
Make use of C2 pointers : No
Read offset correction                      : 6
Overread into Lead-In and Lead-Out          : No
Fill up missing offset samples with silence : Yes
Delete leading and trailing silent blocks   : No
Null samples used in CRC calculations       : Yes
Used interface                              : Native Win32 interface for Win NT & 2000
Gap handling                                : Appended to previous track
Used output format              : User Defined Encoder
Selected bitrate                : 1024 kBit/s
Quality                         : High
Add ID3 tag                     : No
Command line compressor         : C:\Program Files (x86)\Exact Audio Copy\Flac\flac.exe
Additional command line options : -8 -V -T "ARTIST=%artist%" -T "TITLE=%title%" -T "ALBUM=%albumtitle%" -T "DATE=%year%" -T "TRACKNUMBER=%tracknr%" -T "GENRE=%genre%" -T "PERFORMER=%albuminterpret%" -T "COMPOSER=%composer%" %haslyrics%--tag-from-file=LYRICS="%lyricsfile%"%haslyrics% -T "ALBUMARTIST=%albumartist%" -T "DISCNUMBER=%cdnumber%" -T "TOTALDISCS=%totalcds%" -T "TOTALTRACKS=%numtracks%" -T "COMMENT=%comment%" %source% -o %dest%
TOC of the extracted CD
Track |  Start  |  Length  | Start sector | End sector 
---------------------------------------------------------
1  |  0:00.00 |  3:02.12 |        0    |    13661   
2  |  3:02.12 |  3:44.52 |    13662    |    30513   
3  |  6:46.64 |  6:29.08 |    30514    |    59696   
4  | 13:15.72 |  4:15.21 |    59697    |    78842   
5  | 17:31.18 |  3:45.11 |    78843    |    95728   
6  | 21:16.29 |  3:30.29 |    95729    |  111507   
7  | 24:46.58 |  6:16.12 |    111508    |  139719   
8  | 31:02.70 |  2:41.63 |    139720    |  151857   
9  | 33:44.58 |  5:00.18 |    151858    |  174375   
10  | 38:45.01 |  6:06.01 |    174376    |  201826   
11  | 44:51.02 |  6:43.72 |    201827    |  232123   
12  | 51:34.74 |  6:43.05 |    232124    |  262353   
Track  1
Filename C:\Users\brody\Desktop\ROLLED AND SMOKED #PACKWATCH #RIPBOZO\01 Strangers By Nature.wav
Pre-gap length  0:00:02.00
Peak level 97.5 %
Extraction speed 1.1 X
Track quality 100.0 %
Test CRC D4332F40
Copy CRC D4332F40
Track not present in AccurateRip database
Copy OK
Track  2
Filename C:\Users\brody\Desktop\ROLLED AND SMOKED #PACKWATCH #RIPBOZO\02 Easy On Me.wav
Peak level 97.7 %
Extraction speed 1.2 X
Track quality 100.0 %
Test CRC 5420EDB1
Copy CRC 5420EDB1
Track not present in AccurateRip database
Copy OK
Track  3
Filename C:\Users\brody\Desktop\ROLLED AND SMOKED #PACKWATCH #RIPBOZO\03 My Little Love.wav
Peak level 98.7 %
Extraction speed 1.3 X
Track quality 99.9 %
Test CRC 502DB567
Copy CRC 502DB567
Track not present in AccurateRip database
Copy OK
Track  4
Filename C:\Users\brody\Desktop\ROLLED AND SMOKED #PACKWATCH #RIPBOZO\04 Cry Your Heart Out.wav
Peak level 99.8 %
Extraction speed 1.2 X
Track quality 99.9 %
Test CRC 30AD7D0B
Copy CRC 30AD7D0B
Track not present in AccurateRip database
Copy OK
Track  5
Filename C:\Users\brody\Desktop\ROLLED AND SMOKED #PACKWATCH #RIPBOZO\05 Oh My God.wav
Peak level 98.8 %
Extraction speed 1.6 X
Track quality 100.0 %
Test CRC 53053371
Copy CRC 53053371
Track not present in AccurateRip database
Copy OK
Track  6
Filename C:\Users\brody\Desktop\ROLLED AND SMOKED #PACKWATCH #RIPBOZO\06 Can I Get It.wav
Peak level 100.0 %
Extraction speed 1.7 X
Track quality 100.0 %
Test CRC 3C6A4C25
Copy CRC 3C6A4C25
Track not present in AccurateRip database
Copy OK
Track  7
Filename C:\Users\brody\Desktop\ROLLED AND SMOKED #PACKWATCH #RIPBOZO\07 I Drink Wine.wav
Peak level 97.6 %
Extraction speed 1.6 X
Track quality 99.9 %
Test CRC F92FB4DA
Copy CRC F92FB4DA
Track not present in AccurateRip database
Copy OK
Track  8
Filename C:\Users\brody\Desktop\ROLLED AND SMOKED #PACKWATCH #RIPBOZO\08 All Night Parking (Interlude).wav
Peak level 97.8 %
Extraction speed 1.8 X
Track quality 100.0 %
Test CRC 79A030E8
Copy CRC 79A030E8
Track not present in AccurateRip database
Copy OK
Track  9
Filename C:\Users\brody\Desktop\ROLLED AND SMOKED #PACKWATCH #RIPBOZO\09 Woman Like Me.wav
Peak level 96.5 %
Extraction speed 2.1 X
Track quality 100.0 %
Test CRC 2F563FA5
Copy CRC 2F563FA5
Track not present in AccurateRip database
Copy OK
Track 10
Filename C:\Users\brody\Desktop\ROLLED AND SMOKED #PACKWATCH #RIPBOZO\10 Hold On.wav
Peak level 97.3 %
Extraction speed 2.2 X
Track quality 100.0 %
Test CRC 37A1AEF9
Copy CRC 37A1AEF9
Track not present in AccurateRip database
Copy OK
Track 11
Filename C:\Users\brody\Desktop\ROLLED AND SMOKED #PACKWATCH #RIPBOZO\11 To Be Loved.wav
Peak level 99.8 %
Extraction speed 2.4 X
Track quality 100.0 %
Test CRC D70B6769
Copy CRC D70B6769
Track not present in AccurateRip database
Copy OK
Track 12
Filename C:\Users\brody\Desktop\ROLLED AND SMOKED #PACKWATCH #RIPBOZO\12 Love Is A Game.wav
Peak level 99.8 %
Extraction speed 1.9 X
Track quality 99.9 %
Test CRC 2408036B
Copy CRC 2408036B
Track not present in AccurateRip database
Copy OK
None of the tracks are present in the AccurateRip database
No errors occurred
End of status report

看不到下载链接啊!

2# 2021-11-28 23:47

终于找到无损

1# 2021-11-22 21:22

现在就上这个好快啊

新窗口打开 关闭