【8398】丽风金典系列《谭顺成vol.1-6》12CD[低速原抓WAV+CUE]

回复 已回复1 星标
更多

【8398】丽风金典系列《谭顺成vol.1-6》12CD[低速原抓WAV+CUE]

Exact Audio Copy V1.1 from 23. June 2015
EAC 抓取日志文件从21. 八月 2021, 11:44
谭顺成 / 谭顺成vol.6 CD1
使用驱动器  :TEAC    CD-W54E  Adapter: 1  ID: 0
读取模式      : 可靠Secure
使用精确流     : 是
清空音频缓存    : 是
使用 C2 指示器 : 否
读取偏移校正:               : 685
读取 Lead-In 和 Lead-Out : 否
用静音填充抓取中丢失偏移的采样       : 是
去除首尾静音块               : 否
在CRC 计算中使用了空样本       : 是
已用接口                  : Win NT 及 2000 本地 Win32 接口
所用输出模式: : 内部 WAV 函数
样本格式    : 44.100 Hz; 16 Bit; 立体声
已抓取 CD 的 TOC
音轨 |    起始    |    长度    |  起始扇区  |  结束扇区  
--------------------------------------------
1 |  0:00.00 |  2:29.65 |      0 |  11239 
2 |  2:29.65 |  2:35.51 |  11240 |  22915 
3 |  5:05.41 |  2:58.28 |  22916 |  36293 
4 |  8:03.69 |  2:51.12 |  36294 |  49130 
5 | 10:55.06 |  3:14.43 |  49131 |  63723 
6 | 14:09.49 |  3:29.61 |  63724 |  79459 
7 | 17:39.35 |  2:53.39 |  79460 |  92473 
8 | 20:32.74 |  2:26.05 |  92474 | 103428 
9 | 22:59.04 |  3:14.08 | 103429 | 117986 
10 | 26:13.12 |  2:51.46 | 117987 | 130857 
11 | 29:04.58 |  2:30.32 | 130858 | 142139 
12 | 31:35.15 |  3:24.09 | 142140 | 157448 
13 | 34:59.24 |  2:43.53 | 157449 | 169726 
14 | 37:43.02 |  2:52.62 | 169727 | 182688 
15 | 40:35.64 |  3:08.37 | 182689 | 196825 
16 | 43:44.26 |  2:11.29 | 196826 | 206679 
17 | 45:55.55 |  3:03.73 | 206680 | 220477 
18 | 48:59.53 |  3:25.15 | 220478 | 235867 
范围状态及错误
已选择范围
文件名 D:\谭顺成 - 谭顺成vol.6 CD1.wav
峰值电平 100.0 %
抓取速度 2.5 X
范围质量 100.0 %
复制 CRC ABA2DF71
复制成功
没有错误发生

状态报告结尾


|——【8398】丽风金典系列《谭顺成vol.1-6》12CD[低速原抓WAV+CUE]
| |-丽风金典《谭顺成》2CD[低速原抓WAV+CUE]
| | |-Artwork
| | | |-COVER.jpg
| | | |-CD2.jpg
| | | |-CD1.jpg
| | | |-BACK.jpg
| | | |-05.jpg
| | | |-04.jpg
| | | |-03.jpg
| | | |-02.jpg
| | | |-01.jpg
| | | |-CD2内.jpg
| | | |-CD1内.jpg
| | |-谭顺成 - 谭顺成CD2.wav
| | |-谭顺成 - 谭顺成CD1.wav
| | |-谭顺成 - 谭顺成CD2.log
| | |-谭顺成 - 谭顺成CD1.log
| | |-谭顺成 - 谭顺成CD2.cue
| | |-谭顺成 - 谭顺成CD1.cue
| | |-专辑曲目.txt
| |-丽风金典《谭顺成vol.3》2CD[低速原抓WAV+CUE]
| | |-Artwork
| | | |-COVER.jpg
| | | |-CD2.jpg
| | | |-CD1.jpg
| | | |-BACK.jpg
| | | |-05.jpg
| | | |-04.jpg
| | | |-03.jpg
| | | |-02.jpg
| | | |-01.jpg
| | | |-CD2内.jpg
| | | |-CD1内.jpg
| | |-谭顺成 - 谭顺成vol.3 CD2.wav
| | |-谭顺成 - 谭顺成vol.3 CD1.wav
| | |-谭顺成 - 谭顺成vol.3 CD2.log
| | |-谭顺成 - 谭顺成vol.3 CD1.log
| | |-谭顺成 - 谭顺成vol.3 CD2.cue
| | |-谭顺成 - 谭顺成vol.3 CD1.cue
| | |-专辑曲目.txt
| |-丽风金典《谭顺成vol.4》2CD[低速原抓WAV+CUE]
| | |-Artwork
| | | |-COVER.jpg
| | | |-CD2.jpg
| | | |-CD1.jpg
| | | |-BACK.jpg
| | | |-05.jpg
| | | |-04.jpg
| | | |-03.jpg
| | | |-02.jpg
| | | |-01.jpg
| | | |-CD2内.jpg
| | | |-CD1内.jpg
| | |-谭顺成 - 谭顺成vol.4 CD2.wav
| | |-谭顺成 - 谭顺成vol.4 CD1.wav
| | |-谭顺成 - 谭顺成vol.4 CD2.log
| | |-谭顺成 - 谭顺成vol.4 CD1.log
| | |-谭顺成 - 谭顺成vol.4 CD2.cue
| | |-谭顺成 - 谭顺成vol.4 CD1.cue
| | |-专辑曲目.txt
| |-丽风金典《谭顺成vol.5》2CD[低速原抓WAV+CUE]
| | |-Artwork
| | | |-COVER.jpg
| | | |-CD2.jpg
| | | |-CD1.jpg
| | | |-BACK.jpg
| | | |-05.jpg
| | | |-04.jpg
| | | |-03.jpg
| | | |-02.jpg
| | | |-01.jpg
| | | |-CD2内.jpg
| | | |-CD1内.jpg
| | |-谭顺成 - 谭顺成vol.5 CD2.wav
| | |-谭顺成 - 谭顺成vol.5 CD1.wav
| | |-谭顺成 - 谭顺成vol.5 CD2.log
| | |-谭顺成 - 谭顺成vol.5 CD1.log
| | |-谭顺成 - 谭顺成vol.5 CD2.cue
| | |-谭顺成 - 谭顺成vol.5 CD1.cue
| | |-专辑曲目.txt
| |-丽风金典《谭顺成vol.6》2CD[低速原抓WAV+CUE]
| | |-Artwork
| | | |-COVER.jpg
| | | |-CD2.jpg
| | | |-CD1.jpg
| | | |-BACK.jpg
| | | |-05.jpg
| | | |-04.jpg
| | | |-03.jpg
| | | |-02.jpg
| | | |-01.jpg
| | | |-CD2内.jpg
| | | |-CD1内.jpg
| | |-谭顺成 - 谭顺成vol.6 CD2.wav
| | |-谭顺成 - 谭顺成vol.6 CD1.wav
| | |-谭顺成 - 谭顺成vol.6 CD2.log
| | |-谭顺成 - 谭顺成vol.6 CD1.log
| | |-谭顺成 - 谭顺成vol.6 CD2.cue
| | |-谭顺成 - 谭顺成vol.6 CD1.cue
| | |-专辑曲目.txt
| |-【丽风金典系列】谭顺成 -《谭顺成vol.2》2010年 丽风唱片
| | |-CD1
| | | |-麗風金典系列 譚順成 第二集 CD1.wav
| | | |-麗風金典系列 譚順成 第二集 CD1.log
| | | |-麗風金典系列 譚順成 第二集 CD1.cue
| | |-CD2
| | | |-麗風金典系列 譚順成 第二集 CD2.wav
| | | |-麗風金典系列 譚順成 第二集 CD2.log
| | | |-麗風金典系列 譚順成 第二集 CD2.cue
| | |-曲目.txt
| | |-04.jpg
| | |-03.jpg
| | |-02.jpg
| | |-01.jpg

非常整齐的一套老歌专辑

新窗口打开 关闭