【8399】跳舞机·超好听大联唱《THE BIGGEST HITS OF 99》[低速原抓WAV+CUE]

回复 已回复1 星标
更多

【8399】跳舞机·超好听大联唱《THE BIGGEST HITS OF 99》[低速原抓WAV+CUE]

01.Tarzan·Jane
02.Butterfly
03.Boom Boom Boom Boom
04.Calcutta(taxi taxi taxi)
05.SOS(The Tiger Took My Family)
06.We Like To Party
07.Here
08.If You Buy This Record Your Life Will Be
09.Witch Doctor
10.Gimme Gimme medley with a chance
11.Big Big World
12.Baby One More Time
13.Promises
14.Happmises
15.When You Believe
16.Country Road
17.Happy Together
18.Virtual Lover
19.The Name Game
20.Dub I Dub
21.Space Invaders

22.Tango Love


Exact Audio Copy V1.1 from 23. June 2015
EAC 抓取日志文件从26. 九月 2021, 15:37
Various  / The Biggest Hits Of *99
使用驱动器  :TEAC    CD-W54E  Adapter: 1  ID: 0
读取模式      : 可靠Secure
使用精确流     : 是
清空音频缓存    : 是
使用 C2 指示器 : 否
读取偏移校正:               : 685
读取 Lead-In 和 Lead-Out : 否
用静音填充抓取中丢失偏移的采样       : 是
去除首尾静音块               : 否
在CRC 计算中使用了空样本       : 是
已用接口                  : Win NT 及 2000 本地 Win32 接口
所用输出模式: : 内部 WAV 函数
样本格式    : 44.100 Hz; 16 Bit; 立体声
已抓取 CD 的 TOC
音轨 |    起始    |    长度    |  起始扇区  |  结束扇区  
--------------------------------------------
1 |  0:00.00 |  2:40.68 |      0 |  12067 
2 |  2:40.68 |  1:52.26 |  12068 |  20493 
3 |  4:33.19 |  2:27.69 |  20494 |  31587 
4 |  7:01.13 |  2:36.43 |  31588 |  43330 
5 |  9:37.56 |  2:36.44 |  43331 |  55074 
6 | 12:14.25 |  3:18.40 |  55075 |  69964 
7 | 15:32.65 |  3:24.06 |  69965 |  85270 
8 | 18:56.71 |  2:40.54 |  85271 |  97324 
9 | 21:37.50 |  2:58.17 |  97325 | 110691 
10 | 24:35.67 |  3:42.34 | 110692 | 127375 
11 | 28:18.26 |  2:35.40 | 127376 | 139040 
12 | 30:53.66 |  3:17.39 | 139041 | 153854 
13 | 34:11.30 |  3:51.36 | 153855 | 171215 
14 | 38:02.66 |  2:48.54 | 171216 | 183869 
15 | 40:51.45 |  3:13.47 | 183870 | 198391 
16 | 44:05.17 |  2:16.13 | 198392 | 208604 
17 | 46:21.30 |  2:49.36 | 208605 | 221315 
18 | 49:10.66 |  2:37.14 | 221316 | 233104 
19 | 51:48.05 |  3:00.30 | 233105 | 246634 
20 | 54:48.35 |  2:14.03 | 246635 | 256687 
21 | 57:02.38 |  2:47.47 | 256688 | 269259 
22 | 59:50.10 |  3:15.62 | 269260 | 283946 
范围状态及错误
已选择范围
文件名 D:\Various  - The Biggest Hits Of x99.wav
峰值电平 93.3 %
抓取速度 2.5 X
范围质量 100.0 %
复制 CRC DAC7E97C
复制成功
没有错误发生

状态报告结尾


|——【8399】跳舞机·超好听大联唱《THE BIGGEST HITS OF 99》[低速原抓WAV+CUE]
| |-Artwork
| | |-01.jpg
| | |-02.jpg
| | |-03.jpg
| | |-04.jpg
| | |-05.jpg
| | |-06.jpg
| | |-BACK.jpg
| | |-CD内.jpg
| | |-CD.jpg
| | |-COVER.jpg
| | |-封背.jpg
| | |-封面.jpg
| |-Various  - The Biggest Hits Of x99.cue
| |-Various  - The Biggest Hits Of x99.log
| |-Various  - The Biggest Hits Of x99.wav
| |-专辑曲目.txt

分享一个

新窗口打开 关闭