【8417】姚斯婷《连锁反应》头版限量编号24K金碟[低速原抓WAV+CUE]

回复 已回复3 星标
更多

【8417】姚斯婷《连锁反应》头版限量编号24K金碟[低速原抓WAV+CUE]

01.声音
02.童年
03.幸运就是遇到你
04.月光光
05.连锁反应
06.月亮
07.家乡梦
08.诺言
09.天与地
10.平凡最浪漫
11.心有不甘

12.弯弯的月亮


Exact Audio Copy V1.1 from 23. June 2015
EAC 抓取日志文件从28. 十一月 2021, 15:49
姚斯婷 / 连锁反应24K
使用驱动器  :TEAC    CD-W54E  Adapter: 1  ID: 1
读取模式      : 可靠Secure
使用精确流     : 是
清空音频缓存    : 是
使用 C2 指示器 : 否
读取偏移校正:               : 685
读取 Lead-In 和 Lead-Out : 否
用静音填充抓取中丢失偏移的采样       : 是
去除首尾静音块               : 否
在CRC 计算中使用了空样本       : 是
已用接口                  : Win NT 及 2000 本地 Win32 接口
所用输出模式: : 内部 WAV 函数
样本格式    : 44.100 Hz; 16 Bit; 立体声
已抓取 CD 的 TOC
音轨 |    起始    |    长度    |  起始扇区  |  结束扇区  
--------------------------------------------
1 |  0:00.00 |  3:18.72 |      0 |  14921 
2 |  3:18.72 |  4:12.06 |  14922 |  33827 
3 |  7:31.03 |  4:32.23 |  33828 |  54250 
4 | 12:03.26 |  4:54.30 |  54251 |  76330 
5 | 16:57.56 |  4:46.73 |  76331 |  97853 
6 | 21:44.54 |  4:42.15 |  97854 | 119018 
7 | 26:26.69 |  3:55.08 | 119019 | 136651 
8 | 30:22.02 |  3:41.49 | 136652 | 153275 
9 | 34:03.51 |  4:38.21 | 153276 | 174146 
10 | 38:41.72 |  4:18.54 | 174147 | 193550 
11 | 43:00.51 |  4:11.00 | 193551 | 212375 
12 | 47:11.51 |  4:37.42 | 212376 | 233192 
范围状态及错误
已选择范围
文件名 D:\姚斯婷 - 连锁反应24K.wav
峰值电平 100.0 %
抓取速度 2.5 X
范围质量 100.0 %
复制 CRC 7E4C9C88
复制成功
没有错误发生

状态报告结尾


|——【8417】姚斯婷《连锁反应》头版限量编号24K金碟[低速原抓WAV+CUE]
||-Artwork
|||-01.jpg
|||-02.jpg
|||-03.jpg
|||-04.jpg
|||-05.jpg
|||-06.jpg
|||-07.jpg
|||-08.jpg
|||-09.jpg
|||-10.jpg
|||-11.jpg
|||-12.jpg
|||-13.jpg
|||-BACK.jpg
|||-CD内.jpg
|||-CD.jpg
|||-COVER.jpg
|||-封背1.jpg
|||-封背2.jpg
|||-封面1.jpg
|||-封面2.jpg
||-姚斯婷-连锁反应24K.cue
||-姚斯婷-连锁反应24K.log
||-姚斯婷-连锁反应24K.wav
||-专辑曲目.txt

如何下载?

2# 2021-12-07 20:51

不错的碟子,谢谢分享

1# 2021-12-02 08:01

感谢感谢zsbd

新窗口打开 关闭