【8552】邓瑞霞《情在广东8》南方唱片[低速原抓WAV+CUE]

回复 星标
更多

【8552】邓瑞霞《情在广东8》南方唱片[低速原抓WAV+CUE]

01.天眼
02.癡心話記心上
03.情深義重
04.長城
05.心中想念你
06.梁祝贊歌
07.緣
08.秋夜吟
09.情字
10.小樓聽雨
11.琴音低聲奏
12.相思雨
13.春風秋雨又兩年

14.相識恨太遲


Exact Audio Copy V1.1 from 23. June 2015
EAC 抓取日志文件从28. 十一月 2021, 14:04
邓瑞霞 / 天眼
使用驱动器  :TEAC    CD-W54E  Adapter: 1  ID: 1
读取模式      : 可靠Secure
使用精确流     : 是
清空音频缓存    : 是
使用 C2 指示器 : 否
读取偏移校正:               : 685
读取 Lead-In 和 Lead-Out : 否
用静音填充抓取中丢失偏移的采样       : 是
去除首尾静音块               : 否
在CRC 计算中使用了空样本       : 是
已用接口                  : Win NT 及 2000 本地 Win32 接口
所用输出模式: : 内部 WAV 函数
样本格式    : 44.100 Hz; 16 Bit; 立体声
已抓取 CD 的 TOC
音轨 |    起始    |    长度    |  起始扇区  |  结束扇区  
--------------------------------------------
1 |  0:00.00 |  4:29.30 |      0 |  20204 
2 |  4:29.30 |  3:30.34 |  20205 |  35988 
3 |  7:59.64 |  3:25.06 |  35989 |  51369 
4 | 11:24.70 |  4:21.74 |  51370 |  71018 
5 | 15:46.69 |  4:33.04 |  71019 |  91497 
6 | 20:19.73 |  4:31.35 |  91498 | 111857 
7 | 24:51.33 |  3:30.11 | 111858 | 127618 
8 | 28:21.44 |  3:55.05 | 127619 | 145248 
9 | 32:16.49 |  4:18.32 | 145249 | 164630 
10 | 36:35.06 |  4:25.24 | 164631 | 184529 
11 | 41:00.30 |  3:42.01 | 184530 | 201180 
12 | 44:42.31 |  4:21.14 | 201181 | 220769 
13 | 49:03.45 |  5:24.09 | 220770 | 245078 
14 | 54:27.54 |  3:35.08 | 245079 | 261211 
范围状态及错误
已选择范围
文件名 D:\邓瑞霞 - 天眼.wav
峰值电平 100.0 %
抓取速度 2.5 X
范围质量 100.0 %
复制 CRC 48CFEA7D
复制成功
没有错误发生

状态报告结尾


|——【8552】邓瑞霞《情在广东8》南方唱片[低速原抓WAV+CUE]
| |-Artwork
| | |-COVER.jpg
| | |-CD.jpg
| | |-BACK.jpg
| | |-03.jpg
| | |-02.jpg
| | |-01.jpg
| | |-CD内.jpg
| |-邓瑞霞 - 天眼.wav
| |-邓瑞霞 - 天眼.log
| |-邓瑞霞 - 天眼.cue
| |-专辑曲目.txt
新窗口打开 关闭