【8671】F.I.R. 飞儿乐团 - 钻石之心 2021 台版 WAV+CUE

回复 星标
更多

【8671】F.I.R. 飞儿乐团 - 钻石之心 2021 台版  WAV+CUE

曲目:
01.鑽石之心 Diamond Heart
02.愛在蔓延時 When Love Being Spread
03.錦繡夢 Splendid Dream
04.攻無不克 Invincible (電影「獵殺T-34」中文推廣曲)
05.將逝之愛 While Love Dying (電影「靈語」主題曲)
06.一個世界的遼闊 The Vastness Of A World
07.戀戀 feat. SNH48_7SENSES Crush Crush
08.Someday
09.信者恆信 Faith Or Not
10.光的姿態 feat. 絲絨公路 Posture Of Light

11.相信希望 Believe (紀錄片「復工」主題曲)



Exact Audio Copy V1.5 from 20. February 2020
EAC 抓取日志文件从31. 七月 2021, 15:07
F.I.R. / 鑽石之心
使用驱动器  :MATSHITADVD-RAM UJ8HC  Adapter: 1  ID: 0
读取模式      : 可靠Secure
使用精确流     : 是
清空音频缓存    : 是
使用 C2 指示器 : 否
读取偏移校正:               : 6
读取 Lead-In 和 Lead-Out : 否
用静音填充抓取中丢失偏移的采样       : 是
去除首尾静音块               : 否
在CRC 计算中使用了空样本       : 是
已用接口                  : Win NT 及 2000 本地 Win32 接口
所用输出模式: : 内部 WAV 函数
样本格式    : 44.100 Hz; 16 Bit; 立体声
已抓取 CD 的 TOC
音轨 |    起始    |    长度    |  起始扇区  |  结束扇区  
--------------------------------------------
1 |  0:00.00 |  3:42.30 |      0 |  16679 
2 |  3:42.30 |  5:04.35 |  16680 |  39514 
3 |  8:46.65 |  3:42.28 |  39515 |  56192 
4 | 12:29.18 |  4:06.09 |  56193 |  74651 
5 | 16:35.27 |  3:54.65 |  74652 |  92266 
6 | 20:30.17 |  4:46.03 |  92267 | 113719 
7 | 25:16.20 |  3:30.60 | 113720 | 129529 
8 | 28:47.05 |  4:48.07 | 129530 | 151136 
9 | 33:35.12 |  4:09.22 | 151137 | 169833 
10 | 37:44.34 |  4:05.70 | 169834 | 188278 
11 | 41:50.29 |  5:05.36 | 188279 | 211189 
范围状态及错误
已选择范围
文件名 H:\自购自压WAV\F.I.R. - 鑽石之心 台版自壓WAV\F.I.R. - 鑽石之心.wav
峰值电平 100.0 %
抓取速度 4.4 X
范围质量 100.0 %
测试 CRC E6E569BF
复制 CRC E6E569BF
复制成功
没有错误发生
AccurateRip 摘要
音轨  1  在数据库中不存在
音轨  2  在数据库中不存在
音轨  3  在数据库中不存在
音轨  4  在数据库中不存在
音轨  5  在数据库中不存在
音轨  6  在数据库中不存在
音轨  7  在数据库中不存在
音轨  8  在数据库中不存在
音轨  9  在数据库中不存在
音轨 10  在数据库中不存在
音轨 11  在数据库中不存在
没有任何音轨在 AccurateRip 数据库中有记录
状态报告结尾
新窗口打开 关闭