蜚声环球系列 2022年第二批 11CD WAV+CUE

回复 已回复1 星标
更多
分类置顶

蜚声环球系列  2022年第二批  11CD WAV+CUE

|——蜚声环球系列  2022年第二批  11CD WAV+CUE
| |-草蜢 - MAKE SOME NOISE [蜚声环球系列](日本压碟)2022 WAV+CUE
| | |-book
| | | |-01.jpg
| | | |-02.jpg
| | | |-03.jpg
| | | |-04.jpg
| | | |-05.jpg
| | | |-back.jpg
| | | |-cover.jpg
| | | |-disc.jpg
| | |-草蜢 - MAKE SOME NOISE.cue
| | |-草蜢 - MAKE SOME NOISE.log
| | |-草蜢 - MAKE SOME NOISE.wav
| | |-cover.jpg
| |-譚詠麟 - 我的生命我的愛 [蜚声环球系列](日本压碟)2022 WAV+CUE
| | |-book
| | | |-01.jpg
| | | |-02.jpg
| | | |-03.jpg
| | | |-04.jpg
| | | |-05.jpg
| | | |-back.jpg
| | | |-cover.jpg
| | | |-disc.jpg
| | |-cover.jpg
| | |-譚詠麟 - 我的生命我的愛.cue
| | |-譚詠麟 - 我的生命我的愛.log
| | |-譚詠麟 - 我的生命我的愛.wav
| |-Various - 許冠傑光榮引退匯群星 [蜚声环球系列](日本压碟)2022 WAV+CUE
| | |-book
| | | |-01.jpg
| | | |-02.jpg
| | | |-03.jpg
| | | |-04.jpg
| | | |-05.jpg
| | | |-back.jpg
| | | |-cover.jpg
| | | |-disc.jpg
| | |-Various - 許冠傑光榮引退匯群星.cue
| | |-Various - 許冠傑光榮引退匯群星.log
| | |-Various - 許冠傑光榮引退匯群星.wav
| |-黎瑞恩 - 雨季不再来 [蜚声环球系列](日本压碟)2022 WAV+CUE
| | |-book
| | | |-01.jpg
| | | |-02.jpg
| | | |-03.jpg
| | | |-04.jpg
| | | |-05.jpg
| | | |-back.jpg
| | | |-cover.jpg
| | | |-disc.jpg
| | |-cover.jpg
| | |-黎瑞恩 - 雨季不再來.cue
| | |-黎瑞恩 - 雨季不再來.log
| | |-黎瑞恩 - 雨季不再來.wav
| |-关淑怡 - 制造迷梦 [蜚声环球系列](日本压碟)2022 WAV+CUE
| | |-book
| | | |-01.jpg
| | | |-02.jpg
| | | |-03.jpg
| | | |-04.jpg
| | | |-05.jpg
| | | |-06.jpg
| | | |-07.jpg
| | | |-08.jpg
| | | |-back.jpg
| | | |-cover.jpg
| | | |-disc.jpg
| | |-cover.jpg
| | |-關淑怡 - 製造迷夢.cue
| | |-關淑怡 - 製造迷夢.log
| | |-關淑怡 - 製造迷夢.wav
| |-唐韦琪 - Vikki Tong [蜚声环球系列](日本压碟)2022 WAV+CUE
| | |-book
| | | |-01.jpg
| | | |-02.jpg
| | | |-03.jpg
| | | |-04.jpg
| | | |-05.jpg
| | | |-06.jpg
| | | |-07.jpg
| | | |-08.jpg
| | | |-09.jpg
| | | |-10.jpg
| | | |-11.jpg
| | | |-back.jpg
| | | |-cover.jpg
| | | |-disc.jpg
| | |-cover.jpg
| | |-唐韋琪 - Vikki Tong.cue
| | |-唐韋琪 - Vikki Tong.log
| | |-唐韋琪 - Vikki Tong.wav
| |-蔡国权 - 听说爱会是精彩 [蜚声环球系列](日本压碟)2022 WAV+CUE
| | |-book
| | | |-01.jpg
| | | |-02.jpg
| | | |-03.jpg
| | | |-04.jpg
| | | |-05.jpg
| | | |-back.jpg
| | | |-corer.jpg
| | | |-disc.jpg
| | |-蔡国权 - 听说爱会是精彩.cue
| | |-蔡国权 - 听说爱会是精彩.log
| | |-蔡国权 - 听说爱会是精彩.wav
| | |-cover.jpg
| |-周慧敏 - Endless Dream [蜚声环球系列](日本压碟)2022 WAV+CUE
| | |-book
| | | |-01.jpg
| | | |-02.jpg
| | | |-03.jpg
| | | |-04.jpg
| | | |-05.jpg
| | | |-back.jpg
| | | |-cover.jpg
| | | |-disc.jpg
| | |-cover.jpg
| | |-周慧敏 - Endless Dream.cue
| | |-周慧敏 - Endless Dream.log
| | |-周慧敏 - Endless Dream.wav
| |-李克勤 - 只想您会意 [蜚声环球系列](日本压碟)2022 WAV+CUE
| | |-book
| | | |-01.jpg
| | | |-02.jpg
| | | |-03.jpg
| | | |-04.jpg
| | | |-05.jpg
| | | |-back.jpg
| | | |-cover.jpg
| | | |-disc.jpg
| | |-cover.jpg
| | |-李克勤 - 只想您會意.cue
| | |-李克勤 - 只想您會意.log
| | |-李克勤 - 只想您會意.wav
| |-黎明 - 但愿不只是朋友 [蜚声环球系列](日本压碟)2022 WAV+CUE
| | |-book
| | | |-01.jpg
| | | |-02.jpg
| | | |-03.jpg
| | | |-04.jpg
| | | |-05.jpg
| | | |-06.jpg
| | | |-07.jpg
| | | |-08.jpg
| | |-back.jpg
| | |-cover.jpg
| | |-disc.jpg
| | |-黎明 - 但願不只是朋友.cue
| | |-黎明 - 但願不只是朋友.log
| | |-黎明 - 但願不只是朋友.wav
| |-草蜢 - 永远爱着你 [蜚声环球系列](日本压碟)2022 WAV+CUE
| | |-book
| | | |-01.jpg
| | | |-02.jpg
| | | |-03.jpg
| | | |-04.jpg
| | | |-05.jpg
| | | |-06.jpg
| | | |-07.jpg
| | | |-08.jpg
| | |-草蜢 - 永远爱着你.cue
| | |-草蜢 - 永远爱着你.log
| | |-草蜢 - 永远爱着你.wav
| | |-cover.jpg

Exact Audio Copy V1.6 from 23. October 2020

EAC 抓取日志文件从21. 五月 2022, 9:37

唐韋琪 / Vikki Tong

使用驱动器  :HL-DT-STDVDROM DH16NS30  Adapter: 1  ID: 0

读取模式      : 可靠Secure
使用精确流     : 是
清空音频缓存    : 是
使用 C2 指示器 : 否

读取偏移校正:               : 6
读取 Lead-In 和 Lead-Out : 是
用静音填充抓取中丢失偏移的采样       : 是
去除首尾静音块               : 否
 在CRC 计算中使用了空样本       : 是
已用接口                  : Win NT 及 2000 本地 Win32 接口

所用输出模式: : Microsoft PCM Converter
样本格式    : 44.100 kHz, 16 位, 立体声


已抓取 CD 的 TOC

     音轨 |    起始    |    长度    |  起始扇区  |  结束扇区  
    --------------------------------------------
      1 |  0:00.00 |  4:32.36 |      0 |  20435 
      2 |  4:32.36 |  5:12.69 |  20436 |  43904 
      3 |  9:45.30 |  4:10.13 |  43905 |  62667 
      4 | 13:55.43 |  4:11.62 |  62668 |  81554 
      5 | 18:07.30 |  4:05.18 |  81555 |  99947 
      6 | 22:12.48 |  3:45.40 |  99948 | 116862 
      7 | 25:58.13 |  5:08.30 | 116863 | 139992 
      8 | 31:06.43 |  4:32.10 | 139993 | 160402 
      9 | 35:38.53 |  3:16.13 | 160403 | 175115 
    10 | 38:54.66 |  4:27.44 | 175116 | 195184 


范围状态及错误

已选择范围

     文件名 C:\Users\Administrator\Desktop\印象天使\唐韋琪 - Vikki Tong.wav

     峰值电平 98.8 %
     抓取速度 1.9 X
     范围质量 100.0 %
     测试 CRC 81EB3966
     复制 CRC 81EB3966
     复制成功

没有错误发生

状态报告结尾

---- CUETools DB Plugin V2.1.6

[CTDB TOCID: fOeRV.k1d44IiEs30HHeNXWd0DM-] found
Submit result: already submitted
Track | CTDB Status
  1   | (1/1) Accurately ripped
  2   | (1/1) Accurately ripped
  3   | (1/1) Accurately ripped
  4   | (1/1) Accurately ripped
  5   | (1/1) Accurately ripped
  6   | (1/1) Accurately ripped
  7   | (1/1) Accurately ripped
  8   | (1/1) Accurately ripped
  9   | (1/1) Accurately ripped
10   | (1/1) Accurately ripped


==== 记录校验日志 EA8F8BC152DB4138EDE068E6CA0A82CDC14300EF9A4D30EFBCEDE9F251CA8216 ====

Exact Audio Copy V1.6 from 23. October 2020

EAC 抓取日志文件从21. 五月 2022, 8:50

草蜢 / MAKE SOME NOISE

使用驱动器  :HL-DT-STDVDROM DH16NS30  Adapter: 1  ID: 0

读取模式      : 可靠Secure
使用精确流     : 是
清空音频缓存    : 是
使用 C2 指示器 : 否

读取偏移校正:               : 6
读取 Lead-In 和 Lead-Out : 是
用静音填充抓取中丢失偏移的采样       : 是
去除首尾静音块               : 否
 在CRC 计算中使用了空样本       : 是
已用接口                  : Win NT 及 2000 本地 Win32 接口

所用输出模式: : Microsoft PCM Converter
样本格式    : 44.100 kHz, 16 位, 立体声


已抓取 CD 的 TOC

     音轨 |    起始    |    长度    |  起始扇区  |  结束扇区  
    --------------------------------------------
      1 |  0:00.00 |  7:03.18 |      0 |  31742 
      2 |  7:03.18 |  5:40.17 |  31743 |  57259 
      3 | 12:43.35 |  6:10.54 |  57260 |  85063 
      4 | 18:54.14 |  5:31.10 |  85064 | 109898 
      5 | 24:25.24 |  5:16.03 | 109899 | 133601 
      6 | 29:41.27 |  6:04.15 | 133602 | 160916 
      7 | 35:45.42 |  7:31.01 | 160917 | 194742 
      8 | 43:16.43 |  6:19.36 | 194743 | 223203 
      9 | 49:36.04 |  5:41.33 | 223204 | 248811 


范围状态及错误

已选择范围

     文件名 C:\Users\Administrator\Desktop\印象天使\草蜢 - MAKE SOME NOISE.wav

     峰值电平 98.8 %
     抓取速度 2.1 X
     范围质量 100.0 %
     测试 CRC 1A8EB5F6
     复制 CRC 1A8EB5F6
     复制成功

没有错误发生

状态报告结尾

---- CUETools DB Plugin V2.1.6

[CTDB TOCID: HrGLsNaParVBy1KeqTZf_5y4YVk-] found
Submit result: already submitted
Track | CTDB Status
  1   | (1/1) Accurately ripped
  2   | (1/1) Accurately ripped
  3   | (1/1) Accurately ripped
  4   | (1/1) Accurately ripped
  5   | (1/1) Accurately ripped
  6   | (1/1) Accurately ripped
  7   | (1/1) Accurately ripped
  8   | (1/1) Accurately ripped
  9   | (1/1) Accurately ripped


==== 记录校验日志 13D064155A8546019E0222BCD8E451036AC9A3AA84B3F7DE8C322D1112E79E1F ====

怎么下载啊

新窗口打开 关闭