【11326】牟玄甫 - 把春天写在你的脸上 [中国歌唱家系列] 原抓WAV+CUE

回复 星标
更多
309569476<309569476> 2023-02-23 16:28 山东 济南 显示全部楼层

【11326】牟玄甫 - 把春天写在你的脸上 [中国歌唱家系列] 原抓WAV+CUE

目录:

01 喊一声我的三峡
02 把春天写在你的脸上
03 何处是天涯
04 小河淌水
05 冬去春来
06 人间第一情
07 唱起我们的歌
08 在那遥远的地方
09 草原之夜
10 五彩湾之歌
11 心雨之后的太阳
12 红星照我去战斗
13 思念心爱的姑娘




目录:

01 喊一声我的三峡
02 把春天写在你的脸上
03 何处是天涯
04 小河淌水
05 冬去春来
06 人间第一情
07 唱起我们的歌
08 在那遥远的地方
09 草原之夜
10 五彩湾之歌
11 心雨之后的太阳
12 红星照我去战斗
13 思念心爱的姑娘

Exact Audio Copy V1.0 beta 1 from 15. November 2010
EAC 抓取日志文件从11. 十月 2012, 10:42
牟玄甫 / 把春天写在你的脸上(中国歌唱家系列)
使用驱动器  :PLEXTOR CD-R  PREMIUM2  Adapter: 0  ID: 1
读取模式     : 保护
使用精确流    : 是
废除音频缓冲   : 是
使用 C2 指针 : 否
读取偏移校正                : 30
读取 Lead-In 和 Lead-Out : 否
用静音填充抓取中丢失偏移的采样       : 是
去除首尾静音块               : 否
在 CRC 计算中使用了空样本       : 否
已用接口                  : 已安装外部 ASPI 接口
所用输出格式 : 内部 WAV 函数
样本格式   : 44.100 Hz;16 Bit;立体声

被抓轨 CD 的 TOC
     音轨 |    开始    |    长度    |  起始扇区  |  结尾扇区  
    --------------------------------------------
      1 |  0:00.32 |  5:09.50 |    32 |  23256
      2 |  5:10.07 |  6:20.08 |  23257 |  51764
      3 | 11:30.15 |  3:29.27 |  51765 |  67466
      4 | 14:59.42 |  3:31.58 |  67467 |  83349
      5 | 18:31.25 |  4:19.62 |  83350 | 102836
      6 | 22:51.12 |  3:16.70 | 102837 | 117606
      7 | 26:08.07 |  3:48.10 | 117607 | 134716
      8 | 29:56.17 |  3:22.13 | 134717 | 149879
      9 | 33:18.30 |  4:04.52 | 149880 | 168231
    10 | 37:23.07 |  3:14.13 | 168232 | 182794
    11 | 40:37.20 |  4:13.65 | 182795 | 201834
    12 | 44:51.10 |  2:50.10 | 201835 | 214594
    13 | 47:41.20 |  3:46.45 | 214595 | 231589

范围状态及错误
已选择范围
     文件名 D:\自抓\AA\牟玄甫 - 把春天写在你的脸上(中国歌唱家系列).wav
     峰值电平 86.2 %
0.0 X
     范围质量 99.9 %
     复制 CRC 405FFAAA
     复制成功
没有错误发生

AccurateRip 概要

音轨  1  数据库中未见
音轨  2  数据库中未见
音轨  3  数据库中未见
音轨  4  数据库中未见
音轨  5  数据库中未见
音轨  6  数据库中未见
音轨  7  数据库中未见
音轨  8  数据库中未见
音轨  9  数据库中未见
音轨 10  数据库中未见
音轨 11  数据库中未见
音轨 12  数据库中未见
音轨 13  数据库中未见

没有任何音轨出现在 AccurateRip 数据库中
状态报告结尾

www.yxtsbbs.com

新窗口打开 关闭