【11964】酒井法子 Noriko Sakai サカイ・ノリコ - 我愛美人魚 我爱美人鱼 1997 原抓 WAV+CUE

回复 已回复2 星标
更多
309569476<309569476> 2023-05-27 09:02 山东 德州 显示全部楼层

【11964】酒井法子 Noriko Sakai  サカイ・ノリコ - 我愛美人魚  我爱美人鱼 1997 原抓 WAV+CUE

Exact Audio Copy V1.6 from 23. October 2020

EAC 抓取日志文件从25. 二月 2021, 0:41

酒井法子 サカイ・ノリコ / 我愛美人魚

使用驱动器  :PIONEER BD-RW  BDR-S12JX  Adapter: 1  ID: 0

读取模式      : 可靠Secure
使用精确流     : 是
清空音频缓存    : 是
使用 C2 指示器 : 否

读取偏移校正:               : 667
读取 Lead-In 和 Lead-Out : 否
用静音填充抓取中丢失偏移的采样       : 是
去除首尾静音块               : 否
 在CRC 计算中使用了空样本       : 是
已用接口                  : Win NT 及 2000 本地 Win32 接口

所用输出模式: : 内部 WAV 函数
样本格式    : 44.100 Hz; 16 Bit; 立体声


已抓取 CD 的 TOC

     音轨 |    起始    |    长度    |  起始扇区  |  结束扇区  
    --------------------------------------------
      1 |  0:00.00 |  3:03.05 |      0 |  13729 
      2 |  3:03.05 |  4:22.02 |  13730 |  33381 
      3 |  7:25.07 |  3:46.70 |  33382 |  50401 
      4 | 11:12.02 |  5:04.00 |  50402 |  73201 
      5 | 16:16.02 |  4:58.70 |  73202 |  95621 
      6 | 21:14.72 |  4:31.10 |  95622 | 115956 
      7 | 25:46.07 |  3:38.18 | 115957 | 132324 
      8 | 29:24.25 |  4:56.57 | 132325 | 154581 
      9 | 34:21.07 |  4:25.70 | 154582 | 174526 
    10 | 38:47.02 |  3:47.43 | 174527 | 191594 


范围状态及错误

已选择范围

     文件名 E:\大碟6\酒井法子\1997 我愛美人魚\酒井法子 サカイ・ノリコ - 我愛美人魚.wav

     峰值电平 98.0 %
     抓取速度 1.7 X
     范围质量 100.0 %
     复制 CRC 49A11B39
     复制成功

没有错误发生

 
AccurateRip 摘要
 
音轨  1  精确地校准抓取  5)  [42CAAA86]  (AR v2)
音轨  2  精确地校准抓取  5)  [5A98BF7D]  (AR v2)
音轨  3  精确地校准抓取  5)  [B5799B9A]  (AR v2)
音轨  4  精确地校准抓取  5)  [C6757F03]  (AR v2)
音轨  5  精确地校准抓取  5)  [822035FF]  (AR v2)
音轨  6  精确地校准抓取  5)  [C2355FCD]  (AR v2)
音轨  7  精确地校准抓取  5)  [C8AE1B7E]  (AR v2)
音轨  8  精确地校准抓取  5)  [DC201DE0]  (AR v2)
音轨  9  精确地校准抓取  4)  [2D047C3B]  (AR v2)
音轨 10  精确地校准抓取  4)  [F1E49EAA]  (AR v2)
 
所有音轨精确校准抓取

状态报告结尾

---- CUETools DB Plugin V2.1.6

[CTDB TOCID: IXh1FQIEWxmp1wgngolyByj3D2w-] found
Submit result: IXh1FQIEWxmp1wgngolyByj3D2w- has been confirmed
Track | CTDB Status
  1   | (12/12) Accurately ripped
  2   | (12/12) Accurately ripped
  3   | (12/12) Accurately ripped
  4   | (12/12) Accurately ripped
  5   | (12/12) Accurately ripped
  6   | (12/12) Accurately ripped
  7   | (12/12) Accurately ripped
  8   | (12/12) Accurately ripped
  9   | (11/12) Accurately ripped
10   | (10/12) Accurately ripped


01. 我愛美人魚

02. 有縁千里
03. 碧いうさぎ
04. きらめいてそばにいる
05. あなただけ
06. 微笑
07. 愛的心情
08. 言えないひとこと
09. 誘われて...
10. 雨の気持ち
 
回复可见
2023-05-27 09:06:05更新过

倒序阅读 2023-06-14 21:24

酒井法子

2023-07-11 17:59

碧绿色的兔子你还记得吗

新窗口打开 关闭