【12630】刘韵 - Denon Mastersonic [日本天龙版] 1998 原抓FLAC+CUE

回复 星标
更多
309569476<309569476> 2023-08-12 09:03 山东 德州 显示全部楼层

【12630】刘韵 - Denon Mastersonic [日本天龙版] 1998 原抓FLAC+CUE

REM GENRE Oldies

REM DATE 1998
REM DISCID 0E0C2A12
REM COMMENT "ExactAudioCopy v1.1"
PERFORMER "劉韻"
TITLE "Denon Mastersonic"
FILE "CDImage.flac" WAVE
  TRACK 01 AUDIO
    TITLE "加多一點"
    PERFORMER "劉韻"
    INDEX 01 00:00:00
  TRACK 02 AUDIO
    TITLE "姑娘十八一朵花"
    PERFORMER "劉韻"
    INDEX 00 02:53:32
    INDEX 01 02:57:32
  TRACK 03 AUDIO
    TITLE "山前山後百花開"
    PERFORMER "劉韻"
    INDEX 00 06:04:05
    INDEX 01 06:07:70
  TRACK 04 AUDIO
    TITLE "知道不知道"
    PERFORMER "劉韻"
    INDEX 00 08:43:55
    INDEX 01 08:47:42
  TRACK 05 AUDIO
    TITLE "一條橋 (劉韻/江宏)"
    PERFORMER "劉韻"
    INDEX 00 11:14:05
    INDEX 01 11:17:67
  TRACK 06 AUDIO
    TITLE "初一到十五"
    PERFORMER "劉韻"
    INDEX 00 14:22:03
    INDEX 01 14:26:10
  TRACK 07 AUDIO
    TITLE "茶山姑娘 (劉韻/江宏)"
    PERFORMER "劉韻"
    INDEX 00 16:49:30
    INDEX 01 16:53:22
  TRACK 08 AUDIO
    TITLE "九個郎"
    PERFORMER "劉韻"
    INDEX 00 19:39:62
    INDEX 01 19:43:47
  TRACK 09 AUDIO
    TITLE "偷偷摸摸 (劉韻/張萊萊)"
    PERFORMER "劉韻"
    INDEX 00 22:37:67
    INDEX 01 22:41:52
  TRACK 10 AUDIO
    TITLE "有一個傻姑娘"
    PERFORMER "劉韻"
    INDEX 00 25:22:20
    INDEX 01 25:26:17
  TRACK 11 AUDIO
    TITLE "何必去燒香 (劉韻/江宏)"
    PERFORMER "劉韻"
    INDEX 00 28:10:33
    INDEX 01 28:14:35
  TRACK 12 AUDIO
    TITLE "月桃花"
    PERFORMER "劉韻"
    INDEX 00 31:12:27
    INDEX 01 31:16:12
  TRACK 13 AUDIO
    TITLE "賣餛飩"
    PERFORMER "劉韻"
    INDEX 00 34:05:12
    INDEX 01 34:09:02
  TRACK 14 AUDIO
    TITLE "桃花開在春風裡"
    PERFORMER "劉韻"
    INDEX 00 36:35:50
    INDEX 01 36:39:47
  TRACK 15 AUDIO
    TITLE "採蓮花"
    PERFORMER "劉韻"
    INDEX 00 39:11:12
    INDEX 01 39:15:02
  TRACK 16 AUDIO
    TITLE "小白船"
    PERFORMER "劉韻"
    INDEX 00 42:24:50
    INDEX 01 42:28:60
  TRACK 17 AUDIO
    TITLE "深閨寂寂"
    PERFORMER "劉韻"
    INDEX 00 45:18:63
    INDEX 01 45:22:60
  TRACK 18 AUDIO
    TITLE "漁家女"
    PERFORMER "劉韻"
    INDEX 00 48:30:48
    INDEX 01 48:34:45
| |-【12630】刘韵 - Denon Mastersonic [日本天龙版] 1998 原抓FLAC+CUE
| | |-Artwork
| | | |-COVER.jpg
| | | |-CD.jpg
| | | |-CD内圈.jpg
| | | |-BACK.jpg
| | | |-05.jpg
| | | |-04.jpg
| | | |-03.jpg
| | | |-02.jpg
| | | |-01.jpg
| | |-MD5.txt
| | |-log.log
| | |-list.txt
| | |-COVER.jpg
| | |-CDImage.flac
| | |-CDImage.cue
新窗口打开 关闭