【12662】刘昊霖 - 鱼干铺里 [首版] 2016 原抓WAV+CUE+套图

回复 已回复2 星标
更多
309569476<309569476> 2023-08-15 07:12 山东 德州 只看该作者

【12662】刘昊霖 - 鱼干铺里 [首版] 2016 原抓WAV+CUE+套图

 

REM GENRE Pop-Folk
REM DATE 2016
REM DISCID A30C780D
REM COMMENT "ExactAudioCopy v1.0b3"
PERFORMER "刘昊霖"
TITLE "鱼干铺里"
FILE "刘昊霖 - 鱼干铺里.wav" WAVE
  TRACK 01 AUDIO
    TITLE "儿时"
    PERFORMER "刘昊霖"
    INDEX 01 00:00:00
  TRACK 02 AUDIO
    TITLE "缝纫机"
    PERFORMER "刘昊霖"
    INDEX 01 04:21:00
  TRACK 03 AUDIO
    TITLE "北区楼四"
    PERFORMER "刘昊霖"
    INDEX 01 09:33:00
  TRACK 04 AUDIO
    TITLE "迷藏"
    PERFORMER "刘昊霖"
    INDEX 01 14:28:00
  TRACK 05 AUDIO
    TITLE "Landing Guy"
    PERFORMER "刘昊霖"
    INDEX 01 18:34:00
  TRACK 06 AUDIO
    TITLE "南国小圣诞"
    PERFORMER "刘昊霖"
    INDEX 01 22:39:00
  TRACK 07 AUDIO
    TITLE "某天下午有一青年爬上XX桥头"
    PERFORMER "刘昊霖"
    INDEX 01 26:46:09
  TRACK 08 AUDIO
    TITLE "孤独及其所创造的"
    PERFORMER "刘昊霖"
    INDEX 01 30:18:09
  TRACK 09 AUDIO
    TITLE "Colin Wine`s Mailbox"
    PERFORMER "刘昊霖"
    INDEX 01 33:37:15
  TRACK 10 AUDIO
    TITLE "淤青"
    PERFORMER "刘昊霖"
    INDEX 01 36:57:24
  TRACK 11 AUDIO
    TITLE "秋叙道别时"
    PERFORMER "刘昊霖"
    INDEX 01 41:18:42
  TRACK 12 AUDIO
    TITLE "我来过"
    PERFORMER "刘昊霖"
    INDEX 01 45:03:23
  TRACK 13 AUDIO
    TITLE "我来过 Paino Version"
    PERFORMER "刘昊霖"
    INDEX 01 49:10:27


|——【12662】刘昊霖 - 鱼干铺里 [首版] 2016 原抓WAV+CUE+套图

| |-back.jpg
| |-book-1-back.jpg
| |-book-1.jpg
| |-book-2-back.jpg
| |-book-2.jpg
| |-book-3-back.jpg
| |-book-3.jpg
| |-book-4-back.jpg
| |-book-4.jpg
| |-book-5-back.jpg
| |-book-5.jpg
| |-book-6-back.jpg
| |-book-6.jpg
| |-book-7.jpg
| |-box back.jpg
| |-box cover.jpg
| |-box said-1.jpg
| |-box said-2.jpg
| |-box said-3.jpg
| |-box said-4.jpg
| |-CD.jpg
| |-cover.jpg
| |-inside.jpg
| |-刘昊霖 - 鱼干铺里.cue
| |-刘昊霖 - 鱼干铺里.log
| |-刘昊霖 - 鱼干铺里.wav
| |-明信片-1.jpg
| |-明信片-2.jpg
| |-明信片-3.jpg
| |-paper box-1.jpg
| |-paper box-2.jpg

倒序阅读 1# 2023-10-10 16:27

这个一定要支持一下

2# 2024-02-14 20:56

谢谢分享

新窗口打开 关闭