【12749】群星 - 中国古琴 中国民族器乐典藏Disc 8 [太平洋影音] 原抓WAV+CUE

回复 星标
更多
309569476<309569476> 2023-08-25 11:42 山东 德州 显示全部楼层

【12749】群星 - 中国古琴 中国民族器乐典藏Disc 8 [太平洋影音] 原抓WAV+CUE

REM DISCID C00E440C
REM COMMENT "ExactAudioCopy v1.6"
PERFORMER "群星"
TITLE "中国古琴 中国民族器乐典藏Disc 8"
REM COMPOSER ""
FILE "群星 - 中国古琴 中国民族器乐典藏Disc 8.wav" WAVE
  TRACK 01 AUDIO
    TITLE "风雷引 毓邻初"
    PERFORMER "群星"
    REM COMPOSER ""
    INDEX 01 00:00:00
  TRACK 02 AUDIO
    TITLE "佩兰 喻绍泽"
    PERFORMER "群星"
    REM COMPOSER ""
    INDEX 01 03:37:59
  TRACK 03 AUDIO
    TITLE "鹤舞洞天 苏思棣"
    PERFORMER "群星"
    REM COMPOSER ""
    INDEX 01 11:47:29
  TRACK 04 AUDIO
    TITLE "修褉吟 沈兴顺"
    PERFORMER "群星"
    REM COMPOSER ""
    INDEX 01 16:37:17
  TRACK 05 AUDIO
    TITLE "鸥鹭忘机 徐元白"
    PERFORMER "群星"
    REM COMPOSER ""
    INDEX 01 19:59:35
  TRACK 06 AUDIO
    TITLE "石上流泉 詹澄秋"
    PERFORMER "群星"
    REM COMPOSER ""
    INDEX 01 25:41:49
  TRACK 07 AUDIO
    TITLE "洞庭秋思 查阜西"
    PERFORMER "群星"
    REM COMPOSER ""
    INDEX 01 29:55:38
  TRACK 08 AUDIO
    TITLE "醉渔唱晚 卫仲乐"
    PERFORMER "群星"
    REM COMPOSER ""
    INDEX 01 33:02:06
  TRACK 09 AUDIO
    TITLE "醉渔唱晚 查阜西"
    PERFORMER "群星"
    REM COMPOSER ""
    INDEX 01 36:30:48
  TRACK 10 AUDIO
    TITLE "玉树临风 杨新伦"
    PERFORMER "群星"
    REM COMPOSER ""
    INDEX 01 41:09:01
  TRACK 11 AUDIO
    TITLE "春晓吟 管平湖"
    PERFORMER "群星"
    REM COMPOSER ""
    INDEX 01 44:48:08
  TRACK 12 AUDIO
    TITLE ".欸乃 管平湖"
    PERFORMER "群星"
    REM COMPOSER ""
    INDEX 01 48:16:10


Exact Audio Copy V1.6 from 23. October 2020

EAC 抓取日志文件从25. 八月 2023, 7:42

群星 / 中国古琴 中国民族器乐典藏Disc 8

使用驱动器  :TEAC    CD-W540E  Adapter: 1  ID: 0

读取模式 : 快速

读取偏移校正:               : 686
读取 Lead-In 和 Lead-Out : 否
用静音填充抓取中丢失偏移的采样       : 是
去除首尾静音块               : 否
 在CRC 计算中使用了空样本       : 是
已用接口                  : Win NT 及 2000 本地 Win32 接口

所用输出模式: : 内部 WAV 函数
样本格式    : 44.100 Hz; 16 Bit; 立体声


已抓取 CD 的 TOC

     音轨 |    起始    |    长度    |  起始扇区  |  结束扇区  
    --------------------------------------------
      1 |  0:00.00 |  3:37.59 |      0 |  16333 
      2 |  3:37.59 |  8:09.45 |  16334 |  53053 
      3 | 11:47.29 |  4:49.63 |  53054 |  74791 
      4 | 16:37.17 |  3:22.18 |  74792 |  89959 
      5 | 19:59.35 |  5:42.14 |  89960 | 115623 
      6 | 25:41.49 |  4:13.64 | 115624 | 134662 
      7 | 29:55.38 |  3:06.43 | 134663 | 148655 
      8 | 33:02.06 |  3:28.42 | 148656 | 164297 
      9 | 36:30.48 |  4:38.28 | 164298 | 185175 
    10 | 41:09.01 |  3:39.07 | 185176 | 201607 
    11 | 44:48.08 |  3:28.02 | 201608 | 217209 
    12 | 48:16.10 | 12:36.25 | 217210 | 273934 


范围状态及错误

已选择范围

     文件名 E:\印象天使\群星 - 中国古琴 中国民族器乐典藏\群星 - 中国古琴 中国民族器乐典藏Disc 8\群星 - 中国古琴 中国民族器乐典藏Disc 8.wav

     峰值电平 96.5 %
     抓取速度 3.8 X
     复制 CRC 9B2A210F
     复制成功

没有错误发生

 
AccurateRip 摘要
 
音轨  1  在数据库中不存在
音轨  2  在数据库中不存在
音轨  3  在数据库中不存在
音轨  4  在数据库中不存在
音轨  5  在数据库中不存在
音轨  6  在数据库中不存在
音轨  7  在数据库中不存在
音轨  8  在数据库中不存在
音轨  9  在数据库中不存在
音轨 10  在数据库中不存在
音轨 11  在数据库中不存在
音轨 12  在数据库中不存在
 
没有任何音轨在 AccurateRip 数据库中有记录

状态报告结尾

---- CUETools DB Plugin V2.1.6

[CTDB TOCID: wOy6pTZ6mQEfpd42Uga5XpVFZy4-] found
Submit result: wOy6pTZ6mQEfpd42Uga5XpVFZy4- has been confirmed
Track | CTDB Status
  1   | (1/1) Accurately ripped
  2   | (1/1) Accurately ripped
  3   | (1/1) Accurately ripped
  4   | (1/1) Accurately ripped
  5   | (1/1) Accurately ripped
  6   | (1/1) Accurately ripped
  7   | (1/1) Accurately ripped
  8   | (1/1) Accurately ripped
  9   | (1/1) Accurately ripped
10   | (1/1) Accurately ripped
11   | (1/1) Accurately ripped
12   | (1/1) Accurately ripped


| |-【12749】群星 - 中国古琴 中国民族器乐典藏Disc 8 [太平洋影音] 原抓WAV+CUE
| | |-群星 - 中国古琴 中国民族器乐典藏Disc 8.wav
| | |-群星 - 中国古琴 中国民族器乐典藏Disc 8.log
| | |-群星 - 中国古琴 中国民族器乐典藏Disc 8.cue
| | |-cover.jpg
| | |-CD8.jpg
| | |-CD8内.jpg
| | |-back.jpg
新窗口打开 关闭