【12841】群星 - 日本の演歌・第一集 北の宿から[Disc 1][日本版] 2012 原抓WAV+CUE

回复 已回复2 星标
更多
309569476<309569476> 2023-09-03 17:32 山东 德州 显示全部楼层

【12841】群星 - 日本の演歌・第一集 北の宿から[Disc 1][日本版] 2012 原抓WAV+CUE


REM GENRE Ballad
REM DATE 2012
REM DISCID 0910C012
REM COMMENT "ExactAudioCopy v1.1"
PERFORMER "Various Artists"
TITLE "日本の演歌?第一集 [Disc 1]"
FILE "Various Artists - 日本の演歌?第一集 [Disc 1].wav" WAVE
  TRACK 01 AUDIO
    TITLE "北の宿から"
    PERFORMER "都はるみ"
    INDEX 01 00:00:00
  TRACK 02 AUDIO
    TITLE "さざんかの宿"
    PERFORMER "大川栄策"
    INDEX 00 03:49:72
    INDEX 01 03:52:33
  TRACK 03 AUDIO
    TITLE "おもいで酒"
    PERFORMER "小林幸子"
    INDEX 00 08:26:54
    INDEX 01 08:29:16
  TRACK 04 AUDIO
    TITLE "舟呗"
    PERFORMER "八代亜紀"
    INDEX 00 12:14:03
    INDEX 01 12:16:41
  TRACK 05 AUDIO
    TITLE "岡千秋 / 浪花恋しぐれ"
    PERFORMER "都はるみ"
    INDEX 00 16:34:42
    INDEX 01 16:37:05
  TRACK 06 AUDIO
    TITLE "矢切の渡し"
    PERFORMER "細川たかし"
    INDEX 00 20:53:64
    INDEX 01 20:56:26
  TRACK 07 AUDIO
    TITLE "王将*"
    PERFORMER "村田英雄"
    INDEX 00 24:46:72
    INDEX 01 24:49:34
  TRACK 08 AUDIO
    TITLE "ソーラン渡り鸟"
    PERFORMER "こまどり姉妹"
    INDEX 00 28:04:07
    INDEX 01 28:06:45
  TRACK 09 AUDIO
    TITLE "柔"
    PERFORMER "美空ひばり"
    INDEX 00 32:07:24
    INDEX 01 32:09:61
  TRACK 10 AUDIO
    TITLE "女のみち"
    PERFORMER "宫史郎とぴんからトリオ"
    INDEX 00 35:58:16
    INDEX 01 36:00:54
  TRACK 11 AUDIO
    TITLE "好きになった人"
    PERFORMER "都はるみ"
    INDEX 00 40:35:01
    INDEX 01 40:37:40
  TRACK 12 AUDIO
    TITLE "おんなの出船"
    PERFORMER "松原のぶえ"
    INDEX 00 44:15:53
    INDEX 01 44:18:15
  TRACK 13 AUDIO
    TITLE "氷雨"
    PERFORMER "佳山明生"
    INDEX 00 48:21:43
    INDEX 01 48:24:06
  TRACK 14 AUDIO
    TITLE "なみだ恋"
    PERFORMER "八代亜紀"
    INDEX 00 52:05:02
    INDEX 01 52:07:40
  TRACK 15 AUDIO
    TITLE "人生いろいろ"
    PERFORMER "島倉千代子"
    INDEX 00 55:20:57
    INDEX 01 55:23:19
  TRACK 16 AUDIO
    TITLE "みだれ髪"
    PERFORMER "美空ひばり"
    INDEX 00 59:13:69
    INDEX 01 59:16:30
  TRACK 17 AUDIO
    TITLE "北酒場"
    PERFORMER "細川たかし"
    INDEX 00 63:38:34
    INDEX 01 63:40:71
  TRACK 18 AUDIO
    TITLE "越冬つばめ"
    PERFORMER "森昌子"
    INDEX 00 67:25:65
    INDEX 01 67:28:28

 |-【12841】群星 - 日本の演歌・第一集 [Disc 1][日本版] 2012 原抓WAV+CUE

| | |-img487.jpg
| | |-img489.jpg
| | |-日本の演歌・第一集 [Disc 1].wav
| | |-img486.jpg
| | |-日本の演歌・第一集 [Disc 1].log
| | |-日本の演歌・第一集 [Disc 1].cue
| | |-img488.jpg

正序阅读 2023-10-28 15:32

1111

2023-10-28 13:10

1111

新窗口打开 关闭